Loading...
Error

Четыре ящика / Четыре камеры / Four Boxes (Вайат МакДилл) [2009 г., ужасы, триллер, DVDRip] VO

Статистика раздачи
Размер:  1,46 GB   |    Зарегистрирован:  3 года 11 месяцев   |    Скачан:  13 раз

Полного источника не было: 1 день 10 часов

Сидов:  0  |  0 KB/s  ]   Личеров:  0  |  0 KB/s  ]

* - сиды/пиры с внешних источников

   
 
Автор Сообщение

Garnett Пол:Муж

24-Дек-2012 18:47

Четыре ящика / Четыре камеры / Four Boxes
Год выпуска: 2009
Страна: США
Жанр: ужасы, триллер
Продолжительность: 01:24:36
Перевод: одноголосый закадровый Viking
Режиссер: Вайат МакДилл / Wyatt McDill
В ролях: Джастин Кирк, Террин Вестбрук, Сэм Розен, Бэйн Белке, Дэвид Таффорд.
Описание: Несколько приятелей находят и читают в интернете некрологи, чтобы затем попасть в дома умерших и купить за бесценок вещи с целью дальнейшей перепродажи. Но однажды они сталкиваются с не совсем обычным мертвецом...
Качество видео: DVDRip
Формат файла: AVI
Видео: 704x400, 23.976 fps, MPEG-4 Visual, 2231 kbps
Аудио: 48 kHz, MP3, 2 ch, 128 kbps [Russian]
General2 231
Format : AVI
Format/Info : Audio Video Interleave
File size : 1.46 GiB
Duration : 1h 24mn
Overall bit rate : 2 469 Kbps
Writing application : VirtualDubModRus 1.5.10.2 (build 2542/release)
Writing library : VirtualDubMod build 2542/release
Video
ID : 0
Format : MPEG-4 Visual
Format profile : Advanced Simple@L5
Format settings, BVOP : Yes
Format settings, QPel : No
Format settings, GMC : No warppoints
Format settings, Matrix : Custom
Codec ID : XVID
Codec ID/Hint : XviD
Duration : 1h 24mn
Bit rate : 2 231 Kbps
Width : 704 pixels
Height : 400 pixels
Display aspect ratio : 16:9
Frame rate : 23.976 fps
Color space : YUV
Chroma subsampling : 4:2:0
Bit depth : 8 bits
Scan type : Progressive
Bits/(Pixel*Frame) : 0.330
Stream size : 1.32 GiB (90%)
Writing library : XviD 64
Audio #1
ID : 1
Format : MPEG Audio
Format version : Version 1
Format profile : Layer 3
Mode : Joint stereo
Codec ID : 55
Codec ID/Hint : MP3
Duration : 1h 24mn
Bit rate mode : Constant
Bit rate : 128 Kbps
Channel(s) : 2 channels
Sampling rate : 48.0 KHz
Stream size : 77.5 MiB (5%)
Alignment : Aligned on interleaves
Interleave, duration : 42 ms (1.00 video frame)
Interleave, preload duration : 504 ms
picpicpic

Этот торрент недоступен для скачивания без регистрации, однако доступен по публичной magnet-ссылке (источники с публичных трекеров). Перед использованием ссылки прочтите, пожалуйста Пользовательское соглашение, а также как можно дольше оставайтесь на раздаче! Для того, чтобы скачать сам торрент-файл (который видит больше источников), а также для того, чтобы поблагодарить релизера, вам необходимо зарегистрироваться. Если регистрироваться лень - вы можете также попробовать скачать релиз по нашим партнерским ссылкам ниже.

[underverse.su].t22754.torrent
Трекер: Зарегистрирован   [ 24.12.2012 18:47 ]  

Статус: проверено (by Lebedeff at 24.12.2012 18:48)
Поблагодарили: 1 человек
Тип торрента: публичный - доступные источники с открытых трекеров: 
Размер: 1,46 GB (занимает 0,33 DVDR, для записи нужно 1 болванка DVDR/RW)
 
 

Яндекс.Метрика powered by Sphinx


В Н И М А Н И Е
Сайт не распространяет и не хранит электронные версии произведений, а лишь бесплатно и без коммерческой выгоды (не требуя взамен платы,
SMS и т.д.) предоставляет доступ к создаваемому пользователями каталогу ссылок на торрент-файлы, которые содержат только списки хеш-сумм.
Убедительная просьба с жалобами обращаться напрямую к пользователю, разместившему торрент файл.

Вверх