Loading...
Error

Суши гёл / Sushi Girl (Керн Сэкстон) [2012, триллер, криминал, DVDRip-AVC] Dub

Статистика раздачи
Размер:  1,46 GB   |    Зарегистрирован:  3 года 11 месяцев   |    Скачан:  15 раз

Полного источника не было: 2 года 9 месяцев

Сидов:  0  |  0 KB/s  ]   Личеров:  0  |  0 KB/s  ]

* - сиды/пиры с внешних источников

   
 
Автор Сообщение

Garnett Пол:Муж

24-Дек-2012 18:43

Суши гёл / Sushi Girl
Страна: США
Жанр: триллер, криминал
Год выпуска: 2012
Продолжительность: 01:39:28
Перевод: Профессиональный (дублированный)
Cубтитры: нет
Оригинальная аудиодорожка: нет
Режиссер: Керн Сэкстон / Kern Saxton
В ролях: Джеймс Дювал , Александр Коврижных , Ноа Хэтауэй , Энди МакКензи , Владимир Антоник , Тони Тодд , Михаил Георгиу , Марк Хэмилл , Диомид Виноградов , Сонни Чиба , Михаил Белякович , Давид Дастмалчян
Описание: Налетчик по кличке Фиш провел шесть лет в тюрьме. Все эти шесть лет он молчал о совершенном грабеже и своих четырех подельниках. У ворот тюрьмы, после освобождения, его встречает машина и отвозит в место, где собираются все его бывшие друзья, участники громкого ограбления. На столе, в виде угощения, лежит молодая, обнаженная и красивая девушка с разнообразными видами суши на теле. Девушка кажется полностью безмолвной, обученной молчать и не реагировать на то, что происходит вокруг. Даже, если будет опасно. Матерые преступники начинают выяснять меж собой, куда после ограбления пропали бриллианты на несколько миллионов долларов.
Качество видео: DVDRip-AVC
Формат видео: MKV
Видео: 720x436@1024x436, 25.000 fps, 1647 Кбит/сек
Аудио: AC-3, 6 каналов, 48,0 КГц, 448 Кбит/сек
IMDB рейтинг: 5.8 (409 голосов)
Кинопоиск рейтинг: 5.993 (284 голосов)
x264 [info]: frame I:1177 Avg QP:13.78 size: 47174
x264 [info]: frame P:30107 Avg QP:16.31 size: 18413
x264 [info]: frame B:117922 Avg QP:19.03 size: 5244
------------------------------------------------------------------------------------------------------------------
Общее
Полное имя : Sushi.Girl.2012.DVDRip.(AVC).mkv
Формат : Matroska
Версия формата : Version 4 / Version 2
Размер файла : 1,46 Гбайт
Продолжительность : 1 ч. 39 м.
Общий поток : 2096 Кбит/сек
Дата кодирования : UTC 2010-02-22 21:41:31
Программа кодирования : mkvmerge v5.9.0 ('On The Loose') built on Dec 9 2012 15:37:01
Библиотека кодирования : libebml v1.3.0 + libmatroska v1.4.0
Видео
Идентификатор : 1
Формат : AVC
Формат/Информация : Advanced Video Codec
Профиль формата : High@L4.1
Параметр CABAC формата : Да
Параметр ReFrames формата : 12 кадров
Идентификатор кодека : V_MPEG4/ISO/AVC
Продолжительность : 1 ч. 39 м.
Битрейт : 1647 Кбит/сек
Ширина : 720 пикселей
Высота : 436 пикселей
Соотношение сторон : 2,35:1
Режим частоты кадров : Постоянный
Частота кадров : 25,000 кадров/сек
Цветовое пространство : YUV
Субдискретизация насыщенности : 4:2:0
Битовая глубина : 8 бит
Тип развёртки : Прогрессивная
Бит/(Пиксели*Кадры) : 0.210
Размер потока : 1,12 Гбайт (77%)
Библиотека кодирования : x264 core 125 r2208 d9d2288
Настройки программы : cabac=1 / ref=12 / deblock=1:-2:-1 / analyse=0x3:0x133 / me=umh / subme=10 / psy=1 / psy_rd=1.10:0.10 / mixed_ref=1 / me_range=32 / chroma_me=1 / trellis=2 / 8x8dct=1 / cqm=0 / deadzone=21,11 / fast_pskip=0 / chroma_qp_offset=-3 / threads=12 / lookahead_threads=2 / sliced_threads=0 / nr=0 / decimate=1 / interlaced=0 / bluray_compat=0 / constrained_intra=0 / bframes=8 / b_pyramid=2 / b_adapt=2 / b_bias=0 / direct=3 / weightb=1 / open_gop=0 / weightp=2 / keyint=250 / keyint_min=25 / scenecut=40 / intra_refresh=0 / rc=2pass / mbtree=0 / bitrate=1647 / ratetol=1.0 / qcomp=0.60 / qpmin=0 / qpmax=69 / qpstep=4 / cplxblur=20.0 / qblur=0.5 / ip_ratio=1.40 / pb_ratio=1.30 / aq=1:0.90
Язык : English
Default : Да
Forced : Нет
Аудио
Идентификатор : 2
Формат : AC-3
Формат/Информация : Audio Coding 3
Расширение режима : CM (complete main)
Параметр Endianness формата : Big
Идентификатор кодека : A_AC3
Продолжительность : 1 ч. 39 м.
Вид битрейта : Постоянный
Битрейт : 448 Кбит/сек
Каналы : 6 каналов
Расположение каналов : Front: L C R, Side: L R, LFE
Частота : 48,0 КГц
Битовая глубина : 16 бит
Метод сжатия : С потерями
Размер потока : 319 Мбайт (21%)
Язык : Russian
Default : Да
Forced : Нет
Меню
00:00:00.000 : :Chapter 01
00:00:34.000 : :Chapter 02
00:06:26.800 : :Chapter 03
00:17:46.960 : :Chapter 04
00:26:57.040 : :Chapter 05
00:33:22.960 : :Chapter 06
00:43:52.240 : :Chapter 07
00:49:57.520 : :Chapter 08
00:59:57.520 : :Chapter 09
01:06:22.960 : :Chapter 10
01:10:48.400 : :Chapter 11
01:20:56.080 : :Chapter 12
01:32:35.920 : :Chapter 13
01:39:25.360 : :Chapter 14
01:39:25.840 : :Chapter 15
picpicpic

Этот торрент недоступен для скачивания без регистрации, однако доступен по публичной magnet-ссылке (источники с публичных трекеров). Перед использованием ссылки прочтите, пожалуйста Пользовательское соглашение, а также как можно дольше оставайтесь на раздаче! Для того, чтобы скачать сам торрент-файл (который видит больше источников), а также для того, чтобы поблагодарить релизера, вам необходимо зарегистрироваться. Если регистрироваться лень - вы можете также попробовать скачать релиз по нашим партнерским ссылкам ниже.

[underverse.su].t22753.torrent
Трекер: Зарегистрирован   [ 24.12.2012 18:43 ]  

Статус: проверено (by Lebedeff at 24.12.2012 18:47)
Поблагодарили: 1 человек
Тип торрента: публичный - доступные источники с открытых трекеров: 
Размер: 1,46 GB (занимает 1/3 DVDR, для записи нужно 1 болванка DVDR/RW)
 
 
Похожие темы
Форум Тема Автор Торрент Отв. Посл. сооб.
Зарубежное кино [DVDRip, Low-Res HDRip, и т.д.] Суши гёл / Sushi Girl (Керн Сэкстон) [2012 г., триллер, криминал, DVDRip] Dub 90ytr90
0 | 0

0 | 3419

32

21.12.2012 15:23

Зарубежное кино [DVDRip, Low-Res HDRip, и т.д.] Суши гёл / Sushi Girl (Керн Сэкстон) [2012 г., триллер, криминал, DVDRip] Dub 90ytr90
4 | 0

0 | 2544

11

21.12.2012 18:27

Зарубежное кино [DVDRip, Low-Res HDRip, и т.д.] Суши гёл / Sushi Girl (Керн Сэкстон) [2012 г., триллер, криминал, HDRip] Dub [лицензия] RG NewCinema
8 | 0

0 | 3272

13

05.02.2013 14:25


Яндекс.Метрика powered by Sphinx


В Н И М А Н И Е
Сайт не распространяет и не хранит электронные версии произведений, а лишь бесплатно и без коммерческой выгоды (не требуя взамен платы,
SMS и т.д.) предоставляет доступ к создаваемому пользователями каталогу ссылок на торрент-файлы, которые содержат только списки хеш-сумм.
Убедительная просьба с жалобами обращаться напрямую к пользователю, разместившему торрент файл.

Вверх