Loading...
Error

По горячим следам 2 / Серии: 1-16 (16) (Илья Максимов) [2012, детектив, SATRip]

Статистика раздачи
Размер:  7,92 GB   |    Зарегистрирован:  3 года 11 месяцев   |    Скачан:  3 раза

Полного источника не было: 2 года

Сидов:  0  |  0 KB/s  ]   Личеров:  0  |  0 KB/s  ]

* - сиды/пиры с внешних источников

   
 
Автор Сообщение

nemos Пол:Муж

23-Дек-2012 16:41

По горячим следам 2


Год выпуска: 2012
Жанр: детектив
Страна: Россия
Режиссер: Илья Максимов
В ролях: Алексей Шаранин, Мария Порошина, Вячеслав Разбегаев, Илья ДревновВладимир Епифанцев,
Сюжет фильма:
Главные герои сериала, Суворова и Шульгин, любят друг друга и собираются объявить всем о своих отношениях. Но возникает неожиданное препятствие — Шульгин получает известие, что женщина по имени Елена, которую он когда-то любил и считал трагически погибшей по его вине, жива.

Шульгин пытается её разыскать, для него это очень важно — его мучило чувство вины за ее смерть. Не разобравшись со своим прошлым, Шульгин не может строить отношения с Суворовой. Кроме того, Елена — ключевой свидетель в давнем незаконченном деле об убийстве. Шульгин не посвящает Суворову в свое расследование, считает это дело слишком личным. И когда Суворова узнаёт о происходящем, ее это сильно задевает. Она вдруг понимает, что совсем ничего не знает про Шульгина: кто он, откуда, каким он был до неё? Они отдаляются друг от друга. Суворова начинает своё параллельное расследование, надеясь тем самым помочь Шульгину и выяснить что-то для себя. На этом пути они встречают множество преград, их любовь трещит по швам, но, тем не менее, они постепенно, шаг за шагом, узнают друг друга.


Качество видео: SatRip

Продолжительность: 00:42:50 серия
Формат: AVI
Видео: XviD, 704 x 400, 1500 kbps
Аудио: русский, MP3 2.0, 128 kbps

Код:

F:\СКАЧКИ\С underverse\По горячим следам 2.2012. SATRip\По горячим следам.16.2012. SATRip.avi
   General
      Complete name : F:\СКАЧКИ\С underverse\По горячим следам 2.2012. SATRip\По горячим следам.16.2012. SATRip.avi
      Format : AVI
      Format/Info : Audio Video Interleave
      File size : 502 MiB
      Duration : 42mn 50s
      Overall bit rate : 1 638 Kbps
      Writing application : VirtualDubMod 1.5.10.3 | www.virtualdub-fr.org || (build 2550/release)
      Writing library : VirtualDubMod build 2550/release
   Video #0
      ID : 0
      Format : MPEG-4 Visual
      Format profile : Advanced Simple@L5
      Format settings, BVOP : 2
      Format settings, QPel : No
      Format settings, GMC : No warppoints
      Format settings, Matrix : Default (H.263)
      Codec ID : XVID
      Codec ID/Hint : XviD
      Duration : 42mn 50s
      Bit rate : 1 500 Kbps
      Width : 704 pixels
      Height : 400 pixels
      Display aspect ratio : 16:9
      Frame rate : 25.000 fps
      Color space : YUV
      Chroma subsampling : 4:2:0
      Bit depth : 8 bits
      Scan type : Progressive
      Compression mode : Lossy
      Bits/(Pixel*Frame) : 0.213
      Stream size : 460 MiB (92%)
      Writing library : XviD 63
   Audio #1
      ID : 1
      Format : MPEG Audio
      Format version : Version 1
      Format profile : Layer 3
      Mode : Joint stereo
      Mode extension : MS Stereo
      Codec ID : 55
      Codec ID/Hint : MP3
      Duration : 42mn 50s
      Bit rate mode : Constant
      Bit rate : 128 Kbps
      Channel(s) : 2 channels
      Sampling rate : 48.0 KHz
      Compression mode : Lossy
      Stream size : 39.2 MiB (8%)
      Alignment : Aligned on interleaves
      Interleave, duration : 40 ms (1.00 video frame)
      Interleave, preload duration : 504 ms
      Writing library : LAME3.98r
      Encoding settings : -m j -V 4 -q 0 -lowpass 17 -b 128
Семпл: http://multi-up.com/807362

picpicpicpicpicpicpicpicpicpicpicpicpic
Для увеличения картинки щелкните мышкой по превью

Этот торрент недоступен для скачивания без регистрации, однако доступен по публичной magnet-ссылке (источники с публичных трекеров). Перед использованием ссылки прочтите, пожалуйста Пользовательское соглашение, а также как можно дольше оставайтесь на раздаче! Для того, чтобы скачать сам торрент-файл (который видит больше источников), а также для того, чтобы поблагодарить релизера, вам необходимо зарегистрироваться. Если регистрироваться лень - вы можете также попробовать скачать релиз по нашим партнерским ссылкам ниже.

[underverse.su].t22709.torrent
Трекер: Зарегистрирован   [ 23.12.2012 16:41 ]  

Статус: проверено (by garry at 24.12.2012 00:13)
Поблагодарили: 1 человек
Тип торрента: публичный - доступные источники с открытых трекеров: 
Размер: 7,92 GB (занимает 1,81 DVDR, для записи нужно 2 болванки DVDR/RW)
 
 
Похожие темы
Форум Тема Автор Торрент Отв. Посл. сооб.
xUSSR сериалы По горячим следам / Серии: 1-16 (16) (Илья Максимов) [2011, детектив, SATRip] nemos
0 | 1

0 | 489

1

23.12.2012 16:06



Последний раз редактировалось: nemos (24.12.2012 00:07), всего редактировалось 3 раз(а)

Яндекс.Метрика powered by Sphinx


В Н И М А Н И Е
Сайт не распространяет и не хранит электронные версии произведений, а лишь бесплатно и без коммерческой выгоды (не требуя взамен платы,
SMS и т.д.) предоставляет доступ к создаваемому пользователями каталогу ссылок на торрент-файлы, которые содержат только списки хеш-сумм.
Убедительная просьба с жалобами обращаться напрямую к пользователю, разместившему торрент файл.

Вверх