Loading...
Error

По горячим следам / Серии: 1-16 (16) (Илья Максимов) [2011, детектив, SATRip]

Статистика раздачи
Размер:  7,83 GB   |    Зарегистрирован:  3 года 11 месяцев   |    Скачан:  1 раз

Полного источника не было: 1 месяц 26 дней

Сидов:  0  |  0 KB/s  ]   Личеров:  0  |  0 KB/s  ]

* - сиды/пиры с внешних источников

   
 
Автор Сообщение

nemos Пол:Муж

23-Дек-2012 16:06

По горячим следам


Год выпуска: 2011
Жанр: детектив
Страна: Россия
Режиссер: Илья Максимов
В ролях: Мария Порошина, Вячеслав Разбегаев, Дарья Сагалова, Александр Тютин, Владимир Епифанцев, Дмитрий Титов, Василий Брыков, Игорь Литовкин, Ольга Мокшина, Андрей Муравьёв
Сюжет фильма:
Главные герои сериала, майор милиции Любовь Суворова и капитан Андрей Шульгин — сотрудники специального отдела МВД, занимающегося поиском пропавших людей. Суворовой и Шульгину помогает стажёр Ольга, прилежная и добросовестная девушка, на которую всегда можно положиться. Вместе они берутся за дела, на которые иные следователи махнули бы рукой и доводят начатое до конца, чего бы это ни стоило. Герои знают — действовать нужно быстро, ведь отыскать пропавшего человека можно только по горячим следам!


Качество видео: SatRip

Продолжительность: 00:41:11 серия
Формат: AVI
Видео: XviD, 720x400, 1561kbps
Аудио: русский, MP3 2.0, 128kbps

Код:

F:\СКАЧКИ\С underverse\Po gorjachim sledam\Po_gorjachim_sledam.S01.E16.XviD.SATRip.avi
   General
      Complete name : F:\СКАЧКИ\С underverse\Po gorjachim sledam\Po_gorjachim_sledam.S01.E16.XviD.SATRip.avi
      Format : AVI
      Format/Info : Audio Video Interleave
      File size : 501 MiB
      Duration : 41mn 11s
      Overall bit rate : 1 699 Kbps
      Writing application : VirtualDubMod 1.5.10.3 | www.virtualdub-fr.org || (build 2550/release)
      Writing library : VirtualDubMod build 2550/release
   Video #0
      ID : 0
      Format : MPEG-4 Visual
      Format profile : Advanced Simple@L5
      Format settings, BVOP : 1
      Format settings, QPel : No
      Format settings, GMC : No warppoints
      Format settings, Matrix : Default (MPEG)
      Codec ID : XVID
      Codec ID/Hint : XviD
      Duration : 41mn 11s
      Bit rate : 1 561 Kbps
      Width : 720 pixels
      Height : 400 pixels
      Display aspect ratio : 16:9
      Frame rate : 25.000 fps
      Color space : YUV
      Chroma subsampling : 4:2:0
      Bit depth : 8 bits
      Scan type : Progressive
      Compression mode : Lossy
      Bits/(Pixel*Frame) : 0.217
      Stream size : 460 MiB (92%)
      Writing library : XviD 1.2.1 (UTC 2008-12-04)
   Audio #1
      ID : 1
      Format : MPEG Audio
      Format version : Version 1
      Format profile : Layer 3
      Codec ID : 55
      Codec ID/Hint : MP3
      Duration : 41mn 11s
      Bit rate mode : Constant
      Bit rate : 128 Kbps
      Channel(s) : 2 channels
      Sampling rate : 48.0 KHz
      Compression mode : Lossy
      Stream size : 37.7 MiB (8%)
      Alignment : Aligned on interleaves
      Interleave, duration : 40 ms (1.00 video frame)
      Interleave, preload duration : 504 ms
      Writing library : LAME3.98r
      Encoding settings : -m s -V 4 -q 2 -lowpass 17 -b 128
Семпл: http://multi-up.com/807349

picpicpicpicpicpicpicpicpicpicpicpic
Для увеличения картинки щелкните мышкой по превью

Этот торрент недоступен для скачивания без регистрации, однако доступен по публичной magnet-ссылке (источники с публичных трекеров). Перед использованием ссылки прочтите, пожалуйста Пользовательское соглашение, а также как можно дольше оставайтесь на раздаче! Для того, чтобы скачать сам торрент-файл (который видит больше источников), а также для того, чтобы поблагодарить релизера, вам необходимо зарегистрироваться. Если регистрироваться лень - вы можете также попробовать скачать релиз по нашим партнерским ссылкам ниже.

[underverse.su].t22703.torrent
Трекер: Зарегистрирован   [ 23.12.2012 16:06 ]  

Статус: проверено (by garry at 23.12.2012 20:17)
Поблагодарили: 1 человек
Тип торрента: публичный - доступные источники с открытых трекеров: 
Размер: 7,83 GB (занимает 1,79 DVDR, для записи нужно 2 болванки DVDR/RW)
 
 
Похожие темы
Форум Тема Автор Торрент Отв. Посл. сооб.
xUSSR сериалы По горячим следам 2 / Серии: 1-16 (16) (Илья Максимов) [2012, детектив, SATRip] nemos
0 | 0

0 | 668

3

23.12.2012 16:41


Яндекс.Метрика powered by Sphinx


В Н И М А Н И Е
Сайт не распространяет и не хранит электронные версии произведений, а лишь бесплатно и без коммерческой выгоды (не требуя взамен платы,
SMS и т.д.) предоставляет доступ к создаваемому пользователями каталогу ссылок на торрент-файлы, которые содержат только списки хеш-сумм.
Убедительная просьба с жалобами обращаться напрямую к пользователю, разместившему торрент файл.

Вверх