Loading...
Error

Суперсемейка / The Incredibles (Брэд Бёрд) [2004 г., мультфильм, боевик, приключения, семейный, BDRip] Rus Dub HQ Underverse

Статистика раздачи
Размер:  2,18 GB   |    Зарегистрирован:  5 месяцев 5 дней   |    Скачан:  0 раз
Сидов:  1  |  0 KB/s  ]   Личеров:  0  |  0 KB/s  ]

* - сиды/пиры с внешних источников

   
 
Автор Сообщение

HQ Underverse 

22-Дек-2012 19:30

Суперсемейка / The Incredibles


Год выпуска: 2004
Жанр: мультфильм, боевик, приключения, семейный
Страна: США
Режиссер: Брэд Бёрд
Роли озвучивали: Крэйг Т. Нельсон, Холли Хантер, Сэмюэл Л. Джексон, Джейсон Ли, Доминик Луи, Тедди Ньютон, Жан Синсере, Илай Фучиле, Маив Эндрюс, Уоллес Шоун
Сюжет фильма:
История семьи супергероев, члены которой уже отошли от больших дел и предпочитают жить непримечательной жизнью обычных землян. В прошлом все они обладали сверхъестественными способностями и относительно легко справлялись с мировым злом.

Но в один прекрасный день папаше и его домочадцам приходится вновь облачиться в прорезиненные костюмы супергероев (а для этого нужно срочно сбросить лишние килограммы!) и в очередной раз спасти человечество от таинственного злодея…

Качество видео: BDRip [Суперсемейка / The Incredibles (2004) Blu-ray 1080p AVC DTS 5.1 / HD Club]

Продолжительность: 01:55:25
Формат: avi
Видео: XviD, 720x304, 2240 kbps
Аудио: русский, дублированный [лицензия], AC3 5.1, 448 kbps

Релиз группы:

Код:

General
Complete name                            : D:\Video\Movies\Releases\Incredibles.2004.BDRip.XviD.AC3.Rus.D.HQ.Underverse.avi
Format                                   : AVI
Format/Info                              : Audio Video Interleave
Format profile                           : OpenDML
File size                                : 2.18 GiB
Duration                                 : 1h 55mn
Overall bit rate                         : 2 700 Kbps
Writing application                      : VirtualDubMod 1.5.10.3 | www.virtualdub-fr.org || (build 2550/release)
Writing library                          : VirtualDubMod build 2550/release

Video
ID                                       : 0
Format                                   : MPEG-4 Visual
Format profile                           : Advanced Simple@L5
Format settings, BVOP                    : 1
Format settings, QPel                    : No
Format settings, GMC                     : No warppoints
Format settings, Matrix                  : Custom
Codec ID                                 : XVID
Codec ID/Hint                            : XviD
Duration                                 : 1h 55mn
Bit rate                                 : 2 240 Kbps
Width                                    : 720 pixels
Height                                   : 304 pixels
Display aspect ratio                     : 2.35:1
Frame rate                               : 23.976 (24000/1001) fps
Color space                              : YUV
Chroma subsampling                       : 4:2:0
Bit depth                                : 8 bits
Scan type                                : Progressive
Compression mode                         : Lossy
Bits/(Pixel*Frame)                       : 0.427
Stream size                              : 1.81 GiB (83%)
Writing library                          : XviD 67

Audio
ID                                       : 1
Format                                   : AC-3
Format/Info                              : Audio Coding 3
Mode extension                           : CM (complete main)
Format settings, Endianness              : Big
Codec ID                                 : 2000
Duration                                 : 1h 55mn
Bit rate mode                            : Constant
Bit rate                                 : 448 Kbps
Channel(s)                               : 6 channels
Channel positions                        : Front: L C R, Side: L R, LFE
Sampling rate                            : 48.0 KHz
Frame rate                               : 31.250 fps (1536 spf)
Compression mode                         : Lossy
Stream size                              : 370 MiB (17%)
Alignment                                : Split accross interleaves
Interleave, duration                     : 42 ms (1.00 video frame)
Interleave, preload duration             : 500 ms
Title                                    : Russian Dub

picpicpic
Для увеличения картинки щелкните мышкой по превью

Этот торрент недоступен для скачивания без регистрации, однако доступен по публичной magnet-ссылке (источники с публичных трекеров). Перед использованием ссылки прочтите, пожалуйста Пользовательское соглашение, а также как можно дольше оставайтесь на раздаче! Для того, чтобы скачать сам торрент-файл (который видит больше источников), а также для того, чтобы поблагодарить релизера, вам необходимо зарегистрироваться. Если регистрироваться лень - вы можете также попробовать скачать релиз по нашим партнерским ссылкам ниже.

[underverse.su].t22687.torrent
Трекер: Зарегистрирован   [ 27.06.2016 16:46 ]  

Статус: проверено (by HQ Underverse at 27.06.2016 16:46)
Поблагодарили: 1 человек
Тип торрента: публичный - доступные источники с открытых трекеров: 
Размер: 2,18 GB (занимает 1/2 DVDR, для записи нужно 1 болванка DVDR/RW)
 
 

Яндекс.Метрика powered by Sphinx


В Н И М А Н И Е
Сайт не распространяет и не хранит электронные версии произведений, а лишь бесплатно и без коммерческой выгоды (не требуя взамен платы,
SMS и т.д.) предоставляет доступ к создаваемому пользователями каталогу ссылок на торрент-файлы, которые содержат только списки хеш-сумм.
Убедительная просьба с жалобами обращаться напрямую к пользователю, разместившему торрент файл.

Вверх