Loading...
Error

Наживка / L'appat (Ив Симоно) [2010, боевик, комедия, криминал, DVDRip] MVO

Статистика раздачи
Размер:  694 MB   |    Зарегистрирован:  3 года 11 месяцев   |    Скачан:  1 раз

Полного источника не было: 3 года 10 месяцев

Сидов:  0  |  0 KB/s  ]   Личеров:  0  |  0 KB/s  ]

* - сиды/пиры с внешних источников

   
 
Автор Сообщение

Garnett Пол:Муж

22-Дек-2012 18:20

Наживка / L'appat
Страна: Канада
Жанр: боевик, комедия, криминал
Год выпуска: 2010
Продолжительность: 01:23:53
Перевод: Профессиональный (многоголосый, закадровый) [НТВ+]
Режиссер: Ив Симоно / Yves Simoneau
В ролях: Гай Лепаж , Rachid Badouri , Serge Dupire , Максим Рой , Фридерик Пьер , Аиша Исса , Романо Орзари , Мари-Жозе Бьёдро , Анджело Каде , Abdelaziz Saadallah , Хадиджа Асса , Мануэль Тадрос
Описание: В Канаде на руках полицейских погибает бухгалтер мафии. Поскольку погибший был гражданином Франции, парижский комиссар Мулен направляет в Монреаль лучшего агента. Надо выяснить обстоятельства гибели: вдруг погибший что-то сказал перед смертью.

Качество: DVDRip (Исходник неизвестен)
Контейнер: AVI
Видео: XviD, 640x272 (2.35:1), 1019 kbps, 23,976 fps, 0,244 bpp
Аудио: MP3 / 2.0 / 44 kHz / 128 kbps /
General
Complete name : F:\Nazhivka.2010.P.DVDRip_700MB.avi
Format : AVI
Format/Info : Audio Video Interleave
File size : 694 MiB
Duration : 1h 23mn
Overall bit rate : 1 157 Kbps
Writing application : VirtualDubMod 1.5.10.2 (build 2540/release)
Writing library : VirtualDubMod build 2540/release
Video
ID : 0
Format : MPEG-4 Visual
Format profile : Advanced Simple@L5
Format settings, BVOP : 1
Format settings, QPel : No
Format settings, GMC : No warppoints
Format settings, Matrix : Default (H.263)
Codec ID : XVID
Codec ID/Hint : XviD
Duration : 1h 23mn
Bit rate : 1 020 Kbps
Width : 640 pixels
Height : 272 pixels
Display aspect ratio : 2.35:1
Frame rate : 23.976 fps
Color space : YUV
Chroma subsampling : 4:2:0
Bit depth : 8 bits
Scan type : Progressive
Compression mode : Lossy
Bits/(Pixel*Frame) : 0.244
Stream size : 612 MiB (88%)
Writing library : XviD 1.2.1 (UTC 2008-12-04)
Audio
ID : 1
Format : MPEG Audio
Format version : Version 1
Format profile : Layer 3
Mode : Joint stereo
Mode extension : MS Stereo
Codec ID : 55
Codec ID/Hint : MP3
Duration : 1h 23mn
Bit rate mode : Constant
Bit rate : 128 Kbps
Channel(s) : 2 channels
Sampling rate : 44.1 KHz
Compression mode : Lossy
Stream size : 76.8 MiB (11%)
Alignment : Split accross interleaves
Interleave, duration : 42 ms (1.00 video frame)
Interleave, preload duration : 500 ms
picpicpic

Этот торрент недоступен для скачивания без регистрации, однако доступен по публичной magnet-ссылке (источники с публичных трекеров). Перед использованием ссылки прочтите, пожалуйста Пользовательское соглашение, а также как можно дольше оставайтесь на раздаче! Для того, чтобы скачать сам торрент-файл (который видит больше источников), а также для того, чтобы поблагодарить релизера, вам необходимо зарегистрироваться. Если регистрироваться лень - вы можете также попробовать скачать релиз по нашим партнерским ссылкам ниже.

[underverse.su].t22685.torrent
Трекер: Зарегистрирован   [ 22.12.2012 18:20 ]  

Статус: проверено (by garry at 22.12.2012 21:06)
Поблагодарили: пока никто не поблагодарил...
Тип торрента: публичный - доступные источники с открытых трекеров: 
Размер: 694 MB (занимает 0,15 DVDR, для записи нужно 1 болванка DVDR/RW)
 
 
Похожие темы
Форум Тема Автор Торрент Отв. Посл. сооб.
Зарубежное кино [DVDRip, Low-Res HDRip, и т.д.] Наживка / L'appat (Ив Симоно) [2010 г., боевик, комедия, криминал, HDRip] DVO (НТВ+) + Fre 90ytr90
1 | 0

0 | 382

13

22.12.2012 14:11


Яндекс.Метрика powered by Sphinx


В Н И М А Н И Е
Сайт не распространяет и не хранит электронные версии произведений, а лишь бесплатно и без коммерческой выгоды (не требуя взамен платы,
SMS и т.д.) предоставляет доступ к создаваемому пользователями каталогу ссылок на торрент-файлы, которые содержат только списки хеш-сумм.
Убедительная просьба с жалобами обращаться напрямую к пользователю, разместившему торрент файл.

Вверх