Loading...
Error

Давай, до свидания! / Лола против / Lola Versus (Дэрил Вейн) [2012, комедия, HDRip] MVO (R5)

Статистика раздачи
Размер:  745 MB   |    Зарегистрирован:  3 года 11 месяцев   |    Скачан:  13 раз

Полного источника не было: 2 года 7 месяцев

Сидов:  0  |  0 KB/s  ]   Личеров:  0  |  0 KB/s  ]

* - сиды/пиры с внешних источников

   
 
Автор Сообщение

Garnett Пол:Муж

22-Дек-2012 18:14

Давай, до свидания! / Лола против
Lola Versus
«Против секса, любви и всего мира»
Год выпуска: 2012
Страна: США
Жанр: комедия
Продолжительность: 01:26:59
Перевод: Профессиональный (многоголосый закадровый) R5
Субтитры: нет
Режиссёр: Дэрил Вейн / Daryl Wein
В ролях: Грета Гервиг (Lola), Юэль Киннаман (Luke), Зои Листер Джонс (Alice), Хамиш Линклэйтер (Henry), Билл Пуллман (Lenny), Дебра Уингер (Robin), Мария Дицциа (Woman Subletter), Джонатан Сейл (Fantasy Bar Guy), Эбон Мосс-Бакрак (Nick), Адриан Ленокс (Professor), Рэй Яничелли (Man at Restaurant), Кэтрин Кейтс (Woman at Restaurant)
Описание: Очаровательная писательница Лола счастлива с женихом Люком. Свадьба - совершенно естественный следующий шаг в их длительных отношениях. Во всяком случае, так кажется невесте. А у Люка совершенно иное мнение на сей счет, и он решился озвучить его накануне свадьбы. Теперь, девушка разочарована в любви, в сексе, в самой жизни! Но за внешностью заплаканной неудачницы скрывается «стойкий оловянный солдатик», который всем еще покажет «кузькину мать».

Качество видео: HDRip [Lola Versus 2012 720p BluRay DTS x264-EbP]
Формат: AVI
Видео: XviD, 672x368 (16:9), 23.976 fps, ~1060 kbps, 0.179 bpp
Аудио: Русский: MP3, 2 ch, 48 kHz, ~128 kbps
  • Орландо Блум должен был сниматься в главной роли, но отказался еще до начала съемок.
General
Complete name : Lola.Versus.2012.HDRip.XviD.745MB.avi
Format : AVI
Format/Info : Audio Video Interleave
File size : 745 MiB
Duration : 1h 26mn
Overall bit rate : 1 198 Kbps
Writing application : VirtualDubMod 1.5.10.3 | www.virtualdub-fr.org || (build 2550/release)
Writing library : VirtualDubMod build 2550/release
Video
ID : 0
Format : MPEG-4 Visual
Format profile : Advanced Simple@L5
Format settings, BVOP : 1
Format settings, QPel : No
Format settings, GMC : No warppoints
Format settings, Matrix : Custom
Codec ID : XVID
Codec ID/Hint : XviD
Duration : 1h 26mn
Bit rate : 1 060 Kbps
Width : 672 pixels
Height : 368 pixels
Display aspect ratio : 16:9
Frame rate : 23.976 fps
Color space : YUV
Chroma subsampling : 4:2:0
Bit depth : 8 bits
Scan type : Progressive
Compression mode : Lossy
Bits/(Pixel*Frame) : 0.179
Stream size : 660 MiB (89%)
Writing library : XviD 65
Audio
ID : 1
Format : MPEG Audio
Format version : Version 1
Format profile : Layer 3
Mode : Joint stereo
Mode extension : MS Stereo
Codec ID : 55
Codec ID/Hint : MP3
Duration : 1h 26mn
Bit rate mode : Constant
Bit rate : 128 Kbps
Channel(s) : 2 channels
Sampling rate : 48.0 KHz
Compression mode : Lossy
Stream size : 79.6 MiB (11%)
Alignment : Aligned on interleaves
Interleave, duration : 42 ms (1.00 video frame)
Interleave, preload duration : 504 ms
Writing library : LAME3.99r
Encoding settings : -m j -V 4 -q 0 -lowpass 17 -b 128

picpicpic

Этот торрент недоступен для скачивания без регистрации, однако доступен по публичной magnet-ссылке (источники с публичных трекеров). Перед использованием ссылки прочтите, пожалуйста Пользовательское соглашение, а также как можно дольше оставайтесь на раздаче! Для того, чтобы скачать сам торрент-файл (который видит больше источников), а также для того, чтобы поблагодарить релизера, вам необходимо зарегистрироваться. Если регистрироваться лень - вы можете также попробовать скачать релиз по нашим партнерским ссылкам ниже.

[underverse.su].t22683.torrent
Трекер: Зарегистрирован   [ 22.12.2012 18:14 ]  

Статус: проверено (by garry at 22.12.2012 19:46)
Поблагодарили: пока никто не поблагодарил...
Тип торрента: публичный - доступные источники с открытых трекеров: 
Размер: 745 MB (занимает 0,17 DVDR, для записи нужно 1 болванка DVDR/RW)
 
 
Похожие темы
Форум Тема Автор Торрент Отв. Посл. сооб.
Зарубежное кино [DVDRip, Low-Res HDRip, и т.д.] Давай, до свидания! / Lola Versus (Дэрил Вейн) [2012 г., комедия, HDRip] MVO 90ytr90
2 | 0

0 | 467

35

20.11.2012 19:19


Яндекс.Метрика powered by Sphinx


В Н И М А Н И Е
Сайт не распространяет и не хранит электронные версии произведений, а лишь бесплатно и без коммерческой выгоды (не требуя взамен платы,
SMS и т.д.) предоставляет доступ к создаваемому пользователями каталогу ссылок на торрент-файлы, которые содержат только списки хеш-сумм.
Убедительная просьба с жалобами обращаться напрямую к пользователю, разместившему торрент файл.

Вверх