Loading...
Error

Город бога 2 / Cidade dos Homens (Паоло Морелли) [2007, драма, криминал, BDRip] MVO (R5) + Original Por + Subs (rus, eng)

 
Автор Сообщение

Garnett Пол:Муж

22-Дек-2012 17:55

Город бога 2
Cidade dos Homens
«Мегаполис, в котором главное - выжить любой ценой»
Год выпуска: 2007
Страна: Бразилия
Жанр: драма, криминал
Продолжительность: 01:47:51
Перевод: Профессиональный (многоголосый закадровый) R5
Субтитры: русские, английские (отдельным файлом)
Оригинальная аудиодорожка: португальская
Режиссёр: Паоло Морелли / Paulo Morelli
В ролях: Дуглас Силва (Acerola), Дарлан Кунья (Laranjinha), Джонатан Хаагенсен (Madrugadгo), Родриго Дос Сантос (Heraldo), Камила Монтейру (Cris), Наима Силва (Camila), Эдуардо 'БР' Пиранья (Nefasto), Лучиано Видигаль (Fiel), Педро Энрике (Caju), Витор Оливейра (Clayton), Винициус Оливейра (Clayton), Рафаэла Сантос (Bela da Madrugadao)
Описание: Лучшие друзья - Ацеролла «Туз» и Ларанинья «Уоллес» готовы отпраздновать 18-летие «Уоллеса». Ацеролла безнадежно пытается найти своего отца, а Ларанинья переживает, что его жена уезжает на работу в другой город, оставляя его одного с маленьким сыном. Но все их мечты и надежды рушатся, когда начинается городская война, друзья оказываются по разные стороны баррикад. Победит ли дружба бессмысленную войну? Смогут ли они забыть прошлое?
Качество видео: BDRip [Спасибо arxivariys]
Формат: AVI
Видео: XviD, 704x384 (16:9), 23.976 fps, ~2121 kbps, 0.327 bpp
Аудио №1: Русский: AC3, 48 kHz, 3/2 (L,C,R,l,r) + LFE ch, ~384 kbps
Аудио №2: Португальский: AC3, 48 kHz, 3/2 (L,C,R,l,r) + LFE ch, ~384 kbps
General
Complete name : Gorod.boga.2.2007.BDRip\Gorod.boga.2.2007.BDRip.XviD.AC3.avi
Format : AVI
Format/Info : Audio Video Interleave
Format profile : OpenDML
File size : 2.19 GiB
Duration : 1h 47mn
Overall bit rate : 2 907 Kbps
Writing application : VirtualDubMod 1.5.10.3 | www.virtualdub-fr.org || (build 2550/release)
Writing library : VirtualDubMod build 2550/release
Video
ID : 0
Format : MPEG-4 Visual
Format profile : Advanced Simple@L5
Format settings, BVOP : 2
Format settings, QPel : No
Format settings, GMC : No warppoints
Format settings, Matrix : Custom
Codec ID : XVID
Codec ID/Hint : XviD
Duration : 1h 47mn
Bit rate : 2 121 Kbps
Width : 704 pixels
Height : 384 pixels
Display aspect ratio : 16:9
Frame rate : 23.976 fps
Color space : YUV
Chroma subsampling : 4:2:0
Bit depth : 8 bits
Scan type : Progressive
Compression mode : Lossy
Bits/(Pixel*Frame) : 0.327
Stream size : 1.60 GiB (73%)
Writing library : XviD 65
Audio #1
ID : 1
Format : AC-3
Format/Info : Audio Coding 3
Mode extension : CM (complete main)
Codec ID : 2000
Duration : 1h 47mn
Bit rate mode : Constant
Bit rate : 384 Kbps
Channel(s) : 6 channels
Channel positions : Front: L C R, Side: L R, LFE
Sampling rate : 48.0 KHz
Bit depth : 16 bits
Compression mode : Lossy
Stream size : 296 MiB (13%)
Alignment : Split accross interleaves
Interleave, duration : 42 ms (1.00 video frame)
Interleave, preload duration : 500 ms
Audio #2
ID : 2
Format : AC-3
Format/Info : Audio Coding 3
Mode extension : CM (complete main)
Codec ID : 2000
Duration : 1h 47mn
Bit rate mode : Constant
Bit rate : 384 Kbps
Channel(s) : 6 channels
Channel positions : Front: L C R, Side: L R, LFE
Sampling rate : 48.0 KHz
Bit depth : 16 bits
Compression mode : Lossy
Stream size : 296 MiB (13%)
Alignment : Split accross interleaves
Interleave, duration : 42 ms (1.00 video frame)
Interleave, preload duration : 500 ms

pic picpic
[underverse.su].t22678.torrent
Трекер: Не зарегистрирован

Скачать

23 KB

Добавлен: 22.12.2012 17:55
Скачано: 0 раз  [ Список скачавших ]
   
 
Похожие темы
Форум Тема Автор Торрент Отв. Посл. сооб.
Зарубежное кино [DVDRip, Low-Res HDRip, и т.д.] Город бога / Cidade de Deus (Фернанду Мейреллиш / Fernando Meirelles, Катя Лунд / Katia Lund) [2002 г., триллер, драма, криминал, HDRip] MVO Nextim
36 | 1

4 | 1181

6

04.01.2014 18:00

Зарубежное кино [DVDRip, Low-Res HDRip, и т.д.] Город бога 2 / Cidade dos Homens (Паоло Морелли) [2007, драма, криминал, BDRip] MVO (R5) Garnett
1 | 0

0 | 368

4

22.12.2012 17:51

Зарубежное кино [DVDRip, Low-Res HDRip, и т.д.] Город бога / Cidade de Deus / City of God (Фернанду Мейреллиш / Fernando Meirelles, Катя Лунд / Katia Lund) [2002 г., триллер, драма, криминал, BDRip] MVO + Original + Sub (Rus, Eng) 90ytr90
44 | 0

0 | 309

7

04.01.2014 17:21


Яндекс.Метрика powered by Sphinx


В Н И М А Н И Е
Сайт не распространяет и не хранит электронные версии произведений, а лишь бесплатно и без коммерческой выгоды (не требуя взамен платы,
SMS и т.д.) предоставляет доступ к создаваемому пользователями каталогу ссылок на торрент-файлы, которые содержат только списки хеш-сумм.
Убедительная просьба с жалобами обращаться напрямую к пользователю, разместившему торрент файл.

Вверх