Loading...
Error

Элитный отряд / Tropa de Elite (Жозе Падилья) [2007 г., боевик, триллер, драма, криминал, BDRip] MVO + DVO + AVO + Original

 
Автор Сообщение

garry Пол:Муж

20-Дек-2012 21:59

Элитный отряд / Tropa de Elite


Год выпуска: 2007
Жанр: боевик, триллер, драма, криминал
Страна: Бразилия , Аргентина , США , Нидерланды
Режиссер: Жозе Падилья
В ролях: Вагнер Моура, Андре Рамиру, Кайо Жункейра, Мильем Кортас, Фернанда Машаду, Мария Рибейру, Паоло Вилела, Фернанда Де Фрейтас, Андре Фелипе, Фабио Лаго
Сюжет фильма:
В 1997 году, перед визитом Папы Римского в Рио де-Жанейро, капитан Насцименто из БОПО (Батальона особых полицейских операций) получает задание устранить опасность, исходящую от наркоторговцев, действующих в опасных трущобах поблизости от резиденции Папы. Капитан Насцименто ищет человека, способного заменить его, так как жена капитана беременна, и он собирается оставить БОПО и стать наставником новобранцев.

Тем временем, два друга-идеалиста Нето и Матиас начинают службу в военной полиции, рассчитывая стать честными полицейскими и бороться с криминалом. Однако они сталкиваются в военной полиции с коррупцией, недостатком профессионализма и бюрократическим идиотизмом. После серьёзного инцидента в Моро да Бабилония они решают вступить в ряды БОПО.

Пути капитана Насцименто, Нето и Матиаса тесно переплетаются на протяжении нескольких месяцев, вначале в период жёстких тренировок, затем в операции против наркоторговцев. Насцименто верит, что Нето может заменить его, но импульсивная натура Нето затрудняет принятие решения. Позднее кандидатура интеллигентного Матиаса кажется корректным выбором, но Матиасу нужно доказать, что у него есть сердце…

  • Мировая премьера: 17 августа 2007


Качество видео: BDRip

Продолжительность: 01:54:43
Формат: AVI
Видео: XviD, 704x384, 1879 kbps
Аудио #1: русский, многоголосый закадровый [профессиональный, R5], AC3 5.1, 384 kbps
Аудио #2: русский, двухголосый закадровый [профессиональный, НТВ+], AC3 5.1, 448 kbps
Аудио #3: русский, одноголосый закадровый [авторский, Ю.Сербин], AC3 5.1, 448 kbps
Аудио #4: португальский, оригинал, AC3 5.1, 448 kbps
Субтитры #1: тип: внешние, русский, формат: SRT
Субтитры #2: тип: внешние, английский, формат: SRT

Код:

General
 Complete name : D:\VIDEO\Tropa.de.Elite.BDRip\Tropa.de.Elite.2007.BDRip.avi
 Format : AVI
 Format/Info : Audio Video Interleave
 Format profile : OpenDML
 File size : 2.91 GiB
 Duration : 1h 54mn
 Overall bit rate : 3 625 Kbps
 Writing application : VirtualDubMod 1.5.10.3 | www.virtualdub-fr.org || (build 2550/release)
 Writing library : VirtualDubMod build 2550/release

Video
 ID : 0
 Format : MPEG-4 Visual
 Format profile : Advanced Simple@L5
 Format settings, BVOP : Yes
 Format settings, QPel : No
 Format settings, GMC : No warppoints
 Format settings, Matrix : Default (MPEG)
 Codec ID : XVID
 Codec ID/Hint : XviD
 Duration : 1h 54mn
 Bit rate : 1 879 Kbps
 Width : 704 pixels
 Height : 384 pixels
 Display aspect ratio : 16:9
 Frame rate : 23.976 fps
 Color space : YUV
 Chroma subsampling : 4:2:0
 Bit depth : 8 bits
 Scan type : Progressive
 Bits/(Pixel*Frame) : 0.290
 Stream size : 1.51 GiB (52%)
 Writing library : XviD 1.2.1 (UTC 2008-12-04)

Audio #1
 ID : 1
 Format : AC-3
 Format/Info : Audio Coding 3
 Mode extension : CM (complete main)
 Codec ID : 2000
 Duration : 1h 54mn
 Bit rate mode : Constant
 Bit rate : 384 Kbps
 Channel(s) : 6 channels
 Channel positions : Front: L C R, Side: L R, LFE
 Sampling rate : 48.0 KHz
 Bit depth : 16 bits
 Video delay : 20ms
 Stream size : 315 MiB (11%)
 Alignment : Split accross interleaves
 Interleave, duration : 42 ms (1.00 video frame)
 Interleave, preload duration : 500 ms

Audio #2
 ID : 2
 Format : AC-3
 Format/Info : Audio Coding 3
 Mode extension : CM (complete main)
 Codec ID : 2000
 Duration : 1h 52mn
 Bit rate mode : Constant
 Bit rate : 448 Kbps
 Channel(s) : 6 channels
 Channel positions : Front: L C R, Side: L R, LFE
 Sampling rate : 48.0 KHz
 Bit depth : 16 bits
 Stream size : 362 MiB (12%)
 Alignment : Split accross interleaves
 Interleave, duration : 42 ms (1.02 video frame)
 Interleave, preload duration : 500 ms

Audio #3
 ID : 3
 Format : AC-3
 Format/Info : Audio Coding 3
 Mode extension : CM (complete main)
 Codec ID : 2000
 Duration : 1h 54mn
 Bit rate mode : Constant
 Bit rate : 448 Kbps
 Channel(s) : 6 channels
 Channel positions : Front: L C R, Side: L R, LFE
 Sampling rate : 48.0 KHz
 Bit depth : 16 bits
 Stream size : 368 MiB (12%)
 Alignment : Split accross interleaves
 Interleave, duration : 42 ms (1.00 video frame)
 Interleave, preload duration : 500 ms

Audio #4
 ID : 4
 Format : AC-3
 Format/Info : Audio Coding 3
 Mode extension : CM (complete main)
 Codec ID : 2000
 Duration : 1h 54mn
 Bit rate mode : Constant
 Bit rate : 448 Kbps
 Channel(s) : 6 channels
 Channel positions : Front: L C R, Side: L R, LFE
 Sampling rate : 48.0 KHz
 Bit depth : 16 bits
 Stream size : 368 MiB (12%)
 Alignment : Split accross interleaves
 Interleave, duration : 42 ms (1.00 video frame)
 Interleave, preload duration : 500 ms
Релиз группы:

picpicpic
Для увеличения картинки щелкните мышкой по превью
[underverse.su].t22597.torrent
Трекер: Не зарегистрирован

Скачать

15 KB

Добавлен: 20.12.2012 21:57
Скачано: 0 раз  [ Список скачавших ]
   
 
Похожие темы
Форум Тема Автор Торрент Отв. Посл. сооб.
Зарубежное кино [DVDRip, Low-Res HDRip, и т.д.] Элитный отряд: Враг среди нас / Tropa de Elite 2 - O Inimigo Agora E Outro (Жозе Падилья) [2010 г., боевик, триллер, драма, криминал, HDRip] STALKOID
6 | 0

2 | 629

9

21.12.2012 21:38

Зарубежное кино HQ Элитный отряд / Tropa de Elite / Elite Squad (Жозе Падилья / Jose Padilha) [2007 г., боевик, триллер, драма, криминал, BDRip] DVO HQ Underverse HQ Underverse
1 | 0

0 | 1064

27

27.01.2014 09:07

Зарубежное кино [HDDVDRip / BDRip / WEB-DL / HDTV 1080/720р] Элитный отряд / Tropa de Elite / Elite Squad (Жозе Падилья) [2007 г., боевик, триллер, драма, криминал, BDRip 720p] MVO + DVO + VO garry
1 | 0

0 | 602

7

09.10.2012 15:57


Яндекс.Метрика powered by Sphinx


В Н И М А Н И Е
Сайт не распространяет и не хранит электронные версии произведений, а лишь бесплатно и без коммерческой выгоды (не требуя взамен платы,
SMS и т.д.) предоставляет доступ к создаваемому пользователями каталогу ссылок на торрент-файлы, которые содержат только списки хеш-сумм.
Убедительная просьба с жалобами обращаться напрямую к пользователю, разместившему торрент файл.

Вверх