Loading...
Error

Фабрика / The Factory (Морган О’Нил / Morgan O'Neill) [2011, триллер, криминал, детектив, HDRip] VO

Статистика раздачи
Размер:  709 MB   |    Зарегистрирован:  3 года 11 месяцев   |    Скачан:  4 раза

Полного источника не было: 2 года 9 месяцев

Сидов:  0  |  0 KB/s  ]   Личеров:  0  |  0 KB/s  ]

* - сиды/пиры с внешних источников

   
 
Автор Сообщение

Garnett Пол:Муж

20-Дек-2012 12:13

ФабрикаThe Factory
Страна: США, Австралия
Жанр: триллер, криминал, детектив
Год выпуска: 2011
Продолжительность: 01:44:08
Перевод: Любительский (одноголосый)
Режиссер: Морган О’Нил / Morgan O'Neill
В ролях: Дженнифер Карпентер , Джон Кьюсак , Мэй Уитман , Майкл Тревино , Даллас Робертс , Ксения Соло , Соня Уолгер , Маджейна Това , Синди Сэмпсон , Гари Энтони Уильямс , Кэтерин Уотерстон , Кэс Анвар
Описание: Одержимый полицейский идёт по следу серийного убийцы рыщущего на улицах Баффало, штат Нью-Йорк. Но когда его дочь-подросток пропадает, он бросает свою профессиональную сдержанность и идет искать убийцу.

Качество: HDRip [Рип с BDRip 720p]
Контейнер: AVI
Видео: XviD, 640x272 (2.35:1), 814 kbps, 23,976 fps, 0,195 bpp
Аудио: MP3 / 2.0 / 44 kHz / 128 kbps /
General
Complete name : F:\Fabrika.2011.L1.HDRip_700.avi
Format : AVI
Format/Info : Audio Video Interleave
File size : 709 MiB
Duration : 1h 44mn
Overall bit rate : 952 Kbps
Writing application : VirtualDubMod 1.5.10.2 (build 2542/release)
Writing library : VirtualDubMod build 2542/release
Video
ID : 0
Format : MPEG-4 Visual
Format profile : Advanced Simple@L5
Format settings, BVOP : No
Format settings, QPel : No
Format settings, GMC : No warppoints
Format settings, Matrix : Custom
Codec ID : XVID
Codec ID/Hint : XviD
Duration : 1h 44mn
Bit rate : 815 Kbps
Width : 640 pixels
Height : 272 pixels
Display aspect ratio : 2.35:1
Frame rate : 23.976 fps
Color space : YUV
Chroma subsampling : 4:2:0
Bit depth : 8 bits
Scan type : Progressive
Compression mode : Lossy
Bits/(Pixel*Frame) : 0.195
Stream size : 607 MiB (86%)
Writing library : XviD 1.2.1 (UTC 2008-12-04)
Audio
ID : 1
Format : MPEG Audio
Format version : Version 1
Format profile : Layer 3
Mode : Joint stereo
Mode extension : MS Stereo
Codec ID : 55
Codec ID/Hint : MP3
Duration : 1h 44mn
Bit rate mode : Constant
Bit rate : 128 Kbps
Channel(s) : 2 channels
Sampling rate : 44.1 KHz
Compression mode : Lossy
Stream size : 95.3 MiB (13%)
Alignment : Split accross interleaves
Interleave, duration : 42 ms (1.00 video frame)
Interleave, preload duration : 500 ms
Writing library : LAME3.99r
Encoding settings : -m j -V 4 -q 2 -lowpass 17 -b 128
Language : English
picpicpic

Этот торрент недоступен для скачивания без регистрации, однако доступен по публичной magnet-ссылке (источники с публичных трекеров). Перед использованием ссылки прочтите, пожалуйста Пользовательское соглашение, а также как можно дольше оставайтесь на раздаче! Для того, чтобы скачать сам торрент-файл (который видит больше источников), а также для того, чтобы поблагодарить релизера, вам необходимо зарегистрироваться. Если регистрироваться лень - вы можете также попробовать скачать релиз по нашим партнерским ссылкам ниже.

[underverse.su].t22585.torrent
Трекер: Зарегистрирован   [ 20.12.2012 12:13 ]  

Статус: проверено (by garry at 20.12.2012 13:10)
Поблагодарили: пока никто не поблагодарил...
Тип торрента: публичный - доступные источники с открытых трекеров: 
Размер: 709 MB (занимает 0,16 DVDR, для записи нужно 1 болванка DVDR/RW)
 
 
Похожие темы
Форум Тема Автор Торрент Отв. Посл. сооб.
Зарубежное кино [DVDRip, Low-Res HDRip, и т.д.] Фабрика / The Factory (Морган О’Нил) [2011 г., триллер, криминал, детектив, HDRip] VO RG NewCinema
3 | 0

0 | 1818

19

19.12.2012 20:25

Зарубежное кино [DVDRip, Low-Res HDRip, и т.д.] Фабрика / The Factory (Морган О’Нил) [2011 г., триллер, криминал, детектив, HDRip] DVO (den904, DeadSno) 90ytr90
6 | 0

0 | 1134

11

22.12.2012 10:17


Яндекс.Метрика powered by Sphinx


В Н И М А Н И Е
Сайт не распространяет и не хранит электронные версии произведений, а лишь бесплатно и без коммерческой выгоды (не требуя взамен платы,
SMS и т.д.) предоставляет доступ к создаваемому пользователями каталогу ссылок на торрент-файлы, которые содержат только списки хеш-сумм.
Убедительная просьба с жалобами обращаться напрямую к пользователю, разместившему торрент файл.

Вверх