Loading...
Error

Август / Elokuu (Оскари Сипола) [2011, Финляндия, драма, HDRip] VO

Статистика раздачи
Размер:  1,46 GB   |    Зарегистрирован:  3 года 11 месяцев   |    Скачан:  13 раз

Полного источника не было: 9 месяцев

Сидов:  0  |  0 KB/s  ]   Личеров:  0  |  0 KB/s  ]

* - сиды/пиры с внешних источников

   
 
Автор Сообщение

Garnett Пол:Муж

20-Дек-2012 11:58

Август / Elokuu
Страна: Финляндия
Жанр: драма
Год выпуска: 2011
Продолжительность: 01:50:28
Перевод: Любительский (одноголосый) [lord666]
Режиссер: Оскари Сипола / Oskari Sipola
В ролях: Эппу Пастинен , Лина Туркама , Загрос Манучар , Нийна Копонен , Пихла Виитала , Илка Хайсканен , Хенрика Андерссон , Juha Lagstrцm , Markku Maalismaa , Heikki Ranta , Тимо Торикка , Матлеена Куусниеми
Описание: Начинается лето, Аку заканчивает школу и испытывает внутреннее опустошение. Девушка, родители и друзья уехали из города, поэтому каникулы предугадываются не лучшие. Все меняется, когда Аку встречает Джули - красивую, странную и дикую девушку. Джули просит парня отвезти ее в Восточную Финляндию. Он соглашается, даже не подозревая, во что ввязывается.
Качество: HDRip
Контейнер: AVI
Видео: XviD, 720x304 (2.35:1), 1688 kbps, 23,976 fps, 0,322 bpp
Аудио: AC3 / 2.0 / 48 kHz / 192 kbps / 16 bit
General
Complete name : F:\Elokuu.2011.HDRip_1493.avi
Format : AVI
Format/Info : Audio Video Interleave
File size : 1.46 GiB
Duration : 1h 50mn
Overall bit rate : 1 890 Kbps
Writing application : VirtualDubMod 1.5.10.2 (build 2540/release)
Writing library : VirtualDubMod build 2540/release
Video
ID : 0
Format : MPEG-4 Visual
Format profile : Advanced Simple@L5
Format settings, BVOP : 1
Format settings, QPel : No
Format settings, GMC : No warppoints
Format settings, Matrix : Default (MPEG)
Codec ID : XVID
Codec ID/Hint : XviD
Duration : 1h 50mn
Bit rate : 1 689 Kbps
Width : 720 pixels
Height : 304 pixels
Display aspect ratio : 2.35:1
Frame rate : 23.976 fps
Color space : YUV
Chroma subsampling : 4:2:0
Bit depth : 8 bits
Scan type : Progressive
Compression mode : Lossy
Bits/(Pixel*Frame) : 0.322
Stream size : 1.30 GiB (89%)
Writing library : XviD 1.2.1 (UTC 2008-12-04)
Audio
ID : 1
Format : AC-3
Format/Info : Audio Coding 3
Mode extension : CM (complete main)
Codec ID : 2000
Duration : 1h 50mn
Bit rate mode : Constant
Bit rate : 192 Kbps
Channel(s) : 2 channels
Channel positions : Front: L R
Sampling rate : 48.0 KHz
Bit depth : 16 bits
Compression mode : Lossy
Stream size : 152 MiB (10%)
Alignment : Split accross interleaves
Interleave, duration : 42 ms (1.00 video frame)
Interleave, preload duration : 500 ms
picpicpic

Этот торрент недоступен для скачивания без регистрации, однако доступен по публичной magnet-ссылке (источники с публичных трекеров). Перед использованием ссылки прочтите, пожалуйста Пользовательское соглашение, а также как можно дольше оставайтесь на раздаче! Для того, чтобы скачать сам торрент-файл (который видит больше источников), а также для того, чтобы поблагодарить релизера, вам необходимо зарегистрироваться. Если регистрироваться лень - вы можете также попробовать скачать релиз по нашим партнерским ссылкам ниже.

[underverse.su].t22583.torrent
Трекер: Зарегистрирован   [ 20.12.2012 11:58 ]  

Статус: проверено (by garry at 20.12.2012 13:09)
Поблагодарили: 1 человек
Тип торрента: публичный - доступные источники с открытых трекеров: 
Размер: 1,46 GB (занимает 1/3 DVDR, для записи нужно 1 болванка DVDR/RW)
 
 

Яндекс.Метрика powered by Sphinx


В Н И М А Н И Е
Сайт не распространяет и не хранит электронные версии произведений, а лишь бесплатно и без коммерческой выгоды (не требуя взамен платы,
SMS и т.д.) предоставляет доступ к создаваемому пользователями каталогу ссылок на торрент-файлы, которые содержат только списки хеш-сумм.
Убедительная просьба с жалобами обращаться напрямую к пользователю, разместившему торрент файл.

Вверх