Loading...
Error

Замёрзшие / Frozen (Адам Грин) [2010, ужасы, триллер, драма, HDRip-AVC] Dub + Original Eng + Sub (Rus, Eng)

Статистика раздачи
Размер:  2,18 GB   |    Зарегистрирован:  3 года 11 месяцев   |    Скачан:  17 раз

Полного источника не было: 1 месяц 22 дня

Сидов:  0  |  0 KB/s  ]   Личеров:  0  |  0 KB/s  ]

* - сиды/пиры с внешних источников

   
 
Автор Сообщение

Garnett Пол:Муж

20-Дек-2012 11:45

Замёрзшие / Frozen
Страна: США
Жанр: ужасы, триллер, драма
Год выпуска: 2010
Продолжительность: 01:33:18
Перевод: Профессиональный (дублированный)
Cубтитры: русские, английские
Оригинальная аудиодорожка: английский
Режиссер: Адам Грин / Adam Green
В ролях: Эмма Белл, Шон Эшмор, Кевин Зегерс, Эд Экерман, Райли Вандербилт, Кэйн Ходдер, Адам Джонсон, Крис Йорк
Описание: Не всматривайтесь в бездну, иначе бездна начнет всматриваться в вас… Три молодых человека — сноубордисты и лыжник даже и не подозревали, как это может быть в реальности, и какой чудовищный кошмар ожидает их. Они застревают на подъемнике, и веселый вечер в заснеженных зимних горах превращается в ад. Жуткий холод и обжигающий ветер несут гибель несчастным, оказавшимся в ловушке на огромной высоте. Время работает против них — никто не придет на помощь, ведь горнолыжный курорт закрыт на несколько дней. Остается одно — спасаться самим. Но чтобы спастись — нужно победить ужас этой ночи! Весь ужас…
СЭМПЛ: http://multi-up.com/805504
Качество видео: HDRip-AVC (исходник BDRip 1080p)
Формат видео: MKV
Видео: MPEG-4 AVC Video / 2577 kbps / 1152x480 / 23,976 fps / 2.40:1 / 0.194 bpp / High Profile 4.1
Аудио 1: AC3 / Dolby Digital Audio / 5.1 / 48 kHz / 384 kbps // Дубляж //
Аудио 2: AC3 / Dolby Digital Audio / 5.1 / 48 kHz / 384 kbps // Оригинал //
Формат субтитров: softsub (SRT)
Общее
Уникальный идентификатор : 199033406146184950838392160175974623301 (0x95BC708F1134CF989D2548BBCF1DA845)
Полное имя : E:\Frozen.2010.HDRip.2200.mkv
Формат : Matroska
Размер файла : 2,18 Гбайт
Продолжительность : 1 ч. 33 м.
Общий поток : 3344 Кбит/сек
Название фильма : Frozen by Undertaker99
Дата кодирования : UTC 2012-11-28 18:00:27
Программа кодирования : mkvmerge v5.0.1 ('Es ist Sommer') built on Oct 9 2011 11:55:43
Библиотека кодирования : libebml v1.2.2 + libmatroska v1.3.0
Видео
Идентификатор : 1
Формат : AVC
Формат/Информация : Advanced Video Codec
Профиль формата : High@L4.1
Параметр CABAC формата : Да
Параметр ReFrames формата : 8 кадров
Идентификатор кодека : V_MPEG4/ISO/AVC
Продолжительность : 1 ч. 33 м.
Битрейт : 2577 Кбит/сек
Ширина : 1152 пикс.
Высота : 480 пикс.
Соотношение сторон : 2,40:1
Частота кадров : 23,976 кадр/сек
Цветовое пространство : YUV
Подвыборка цветности : 4:2:0
Битовая глубина : 8 бит
Тип развёртки : Прогрессивная
Бит/(Пиксели*Кадры) : 0.194
Размер потока : 1,64 Гбайт (75%)
Библиотека кодирования : x264 core 125 r2200 999b753
Настройки программы : cabac=1 / ref=8 / deblock=1:-1:-1 / analyse=0x3:0x113 / me=umh / subme=7 / psy=1 / psy_rd=1.00:0.00 / mixed_ref=1 / me_range=16 / chroma_me=1 / trellis=2 / 8x8dct=1 / cqm=0 / deadzone=21,11 / fast_pskip=1 / chroma_qp_offset=-2 / threads=6 / lookahead_threads=1 / sliced_threads=0 / nr=0 / decimate=1 / interlaced=0 / bluray_compat=0 / constrained_intra=0 / bframes=3 / b_pyramid=2 / b_adapt=1 / b_bias=0 / direct=3 / weightb=1 / open_gop=0 / weightp=2 / keyint=240 / keyint_min=23 / scenecut=40 / intra_refresh=0 / rc_lookahead=40 / rc=2pass / mbtree=1 / bitrate=2577 / ratetol=1.0 / qcomp=0.60 / qpmin=0 / qpmax=61 / qpstep=4 / cplxblur=20.0 / qblur=0.5 / ip_ratio=1.40 / aq=1:1.00
Язык : English
Аудио #1
Идентификатор : 2
Формат : AC-3
Формат/Информация : Audio Coding 3
Расширение режима : CM (complete main)
Идентификатор кодека : A_AC3
Продолжительность : 1 ч. 33 м.
Вид битрейта : Постоянный
Битрейт : 384 Кбит/сек
Каналы : 6 каналов
Расположение каналов : Front: L C R, Side: L R, LFE
Частота : 48,0 КГц
Битовая глубина : 16 бит
Метод сжатия : С потерями
Размер потока : 256 Мбайт (11%)
Заголовок : DUB
Язык : Russian
Аудио #2
Идентификатор : 3
Формат : AC-3
Формат/Информация : Audio Coding 3
Расширение режима : CM (complete main)
Идентификатор кодека : A_AC3
Продолжительность : 1 ч. 33 м.
Вид битрейта : Постоянный
Битрейт : 384 Кбит/сек
Каналы : 6 каналов
Расположение каналов : Front: L C R, Side: L R, LFE
Частота : 48,0 КГц
Битовая глубина : 16 бит
Метод сжатия : С потерями
Размер потока : 256 Мбайт (11%)
Язык : English
Текст #1
Идентификатор : 4
Формат : UTF-8
Идентификатор кодека : S_TEXT/UTF8
Идентификатор кодека/Информация : UTF-8 Plain Text
Язык : Russian
Текст #2
Идентификатор : 5
Формат : UTF-8
Идентификатор кодека : S_TEXT/UTF8
Идентификатор кодека/Информация : UTF-8 Plain Text
Язык : English
picpicpic

Этот торрент недоступен для скачивания без регистрации, однако доступен по публичной magnet-ссылке (источники с публичных трекеров). Перед использованием ссылки прочтите, пожалуйста Пользовательское соглашение, а также как можно дольше оставайтесь на раздаче! Для того, чтобы скачать сам торрент-файл (который видит больше источников), а также для того, чтобы поблагодарить релизера, вам необходимо зарегистрироваться. Если регистрироваться лень - вы можете также попробовать скачать релиз по нашим партнерским ссылкам ниже.

[underverse.su].t22580.torrent
Трекер: Зарегистрирован   [ 20.12.2012 11:45 ]  

Статус: проверено (by garry at 20.12.2012 13:04)
Поблагодарили: пока никто не поблагодарил...
Тип торрента: публичный - доступные источники с открытых трекеров: 
Размер: 2,18 GB (занимает 1/2 DVDR, для записи нужно 1 болванка DVDR/RW)
 
 
Похожие темы
Форум Тема Автор Торрент Отв. Посл. сооб.
Архив Замерзшие души / Cold Souls / 2009 / DVDRip ( Софи Бартез) [2009 г., комедия, ] niif111
0 | 0

1 | 808

6

08.10.2010 21:24

Архив Замёрзшие / Frozen (Адам Грин / Adam Green) [2010 г., триллер, драма, DVDRip] GanibalKing
0 | 0

2 | 1133

15

17.02.2011 14:46


Яндекс.Метрика powered by Sphinx


В Н И М А Н И Е
Сайт не распространяет и не хранит электронные версии произведений, а лишь бесплатно и без коммерческой выгоды (не требуя взамен платы,
SMS и т.д.) предоставляет доступ к создаваемому пользователями каталогу ссылок на торрент-файлы, которые содержат только списки хеш-сумм.
Убедительная просьба с жалобами обращаться напрямую к пользователю, разместившему торрент файл.

Вверх