Loading...
Error

Оборотень в погонах (Александр Будённый) [2012, Украина, Детектив, криминальный фильм, SATRip]

Статистика раздачи
Размер:  1,17 GB   |    Зарегистрирован:  3 года 11 месяцев   |    Скачан:  9 раз

Полного источника не было: 2 года

Сидов:  0  |  0 KB/s  ]   Личеров:  0  |  0 KB/s  ]

* - сиды/пиры с внешних источников

   
 
Автор Сообщение

nemos Пол:Муж

19-Дек-2012 02:12


Год выпуска: 2012
Жанр: детектив, криминальный
Страна: Украина
Режиссер: Александр Будённый
В ролях: Вячеслав Разбегаев, Анастасия Макеева, Михаил Жигалов, Дмитрий Суржиков, Виктор Сарайкин, Олег Примогенов, Антонина Макарчук, Станислав Щёкин, Андрей ПавленкоКонстантин Косинский,
Сюжет фильма:
Самые сложные, опасные и загадочные преступления, распутать которые, кажется, не под силу обычному человеку, поручают капитану Рыкову. Его острый ум, многолетний опыт, здоровый цинизм и молниеносная реакция не только способствуют высокой раскрываемости, но и становятся основой для неоднозначной репутации. Настолько неоднозначной, что некоторые его знакомые склонны считать, что капитан Рыков, как бы это точнее выразиться, и не человек вовсе… Но кто же он на самом деле?


Качество видео: SatRip

Продолжительность: 01:18:00
Формат: AVI
Видео: XviD, 720x400 , 1930 kbps
Аудио: русский, MP3 2.0, 192 kbps

Код:

F:\СКАЧКИ\С underverse\Oboroten.2012.XviD.SATRip.Files-x.avi
   General
      Complete name : F:\СКАЧКИ\С underverse\Oboroten.2012.XviD.SATRip.Files-x.avi
      Format : AVI
      Format/Info : Audio Video Interleave
      File size : 1.17 GiB
      Duration : 1h 18mn
      Overall bit rate : 2 131 Kbps
      Writing application : VirtualDubModRus 1.5.10.2 (build 2540/release)
      Writing library : VirtualDubMod build 2540/release
   Video #0
      ID : 0
      Format : MPEG-4 Visual
      Format profile : Advanced Simple@L5
      Format settings, BVOP : 1
      Format settings, QPel : No
      Format settings, GMC : No warppoints
      Format settings, Matrix : Default (H.263)
      Codec ID : XVID
      Codec ID/Hint : XviD
      Duration : 1h 18mn
      Bit rate : 1 930 Kbps
      Width : 720 pixels
      Height : 400 pixels
      Display aspect ratio : 16:9
      Frame rate : 25.000 fps
      Color space : YUV
      Chroma subsampling : 4:2:0
      Bit depth : 8 bits
      Scan type : Progressive
      Compression mode : Lossy
      Bits/(Pixel*Frame) : 0.268
      Stream size : 1.06 GiB (91%)
      Writing library : XviD 1.2.1 (UTC 2008-12-04)
   Audio #1
      ID : 1
      Format : MPEG Audio
      Format version : Version 1
      Format profile : Layer 3
      Codec ID : 55
      Codec ID/Hint : MP3
      Duration : 1h 18mn
      Bit rate mode : Constant
      Bit rate : 192 Kbps
      Channel(s) : 2 channels
      Sampling rate : 48.0 KHz
      Compression mode : Lossy
      Stream size : 108 MiB (9%)
      Alignment : Aligned on interleaves
      Interleave, duration : 40 ms (1.00 video frame)
      Interleave, preload duration : 504 ms
      Writing library : LAME3.98r
      Encoding settings : -m s -V 4 -q 2 -lowpass 18.6 -b 192
Семпл: http://multi-up.com/805347

picpicpicpicpicpicpicpic
Для увеличения картинки щелкните мышкой по превью

Этот торрент недоступен для скачивания без регистрации, однако доступен по публичной magnet-ссылке (источники с публичных трекеров). Перед использованием ссылки прочтите, пожалуйста Пользовательское соглашение, а также как можно дольше оставайтесь на раздаче! Для того, чтобы скачать сам торрент-файл (который видит больше источников), а также для того, чтобы поблагодарить релизера, вам необходимо зарегистрироваться. Если регистрироваться лень - вы можете также попробовать скачать релиз по нашим партнерским ссылкам ниже.

[underverse.su].t22521.torrent
Трекер: Зарегистрирован   [ 19.12.2012 02:12 ]  

Статус: проверено (by eXtatik at 19.12.2012 04:58)
Поблагодарили: 1 человек
Тип торрента: публичный - доступные источники с открытых трекеров: 
Размер: 1,17 GB (занимает 0,27 DVDR, для записи нужно 1 болванка DVDR/RW)
 
 
Похожие темы
Форум Тема Автор Торрент Отв. Посл. сооб.
Зарубежное кино [DVDRip, Low-Res HDRip, и т.д.] Оборотень / Werewolf: The Beast Among Us (Луи Морно) [2012 г., триллер, HDRip] DVO [den904 и DeadSno] RG NewCinema
0 | 0

0 | 788

36

15.10.2012 17:05

Зарубежное кино [DVDRip, Low-Res HDRip, и т.д.] Оборотень / Wer (Уильям Брент Белл) [2013 г., ужасы, триллер, детектив, WEB-DLRip] VO Паукан
14 | 0

0 | 1163

38

26.06.2014 13:26

T Зарубежное кино [DVDRip, Low-Res HDRip, и т.д.] Оборотень / Wer (Уильям Брент Белл / William Brent Bell) [2013 г., ужасы, триллер, детектив, WEB-DLRip] Dub (чистый звук) 90ytr90
47 | 0

0 | 283

9

26.11.2014 21:32

Зарубежное кино [DVD / HDDVD / BD / Remux] Оборотень / Ginger Snaps (Джон Фоусет) [2000 г., Ужасы, Драма, Blu-ray 1080p] DVO (RUS, Twister) + Original (ENG) + Subs (RUS, ENG) Ведьмочка
0 | 0

0 | 797

0

05.08.2014 22:30

Зарубежное кино [HDDVDRip / BDRip / WEB-DL / HDTV 1080/720р] Оборотень / Ginger Snaps (Джон Фоусет) [2000 г., Ужасы, Драма, BDRip 720p] DVO (RUS, Twister) + Original (ENG) + Subs (RUS, ENG) Ведьмочка
0 | 0

0 | 815

2

05.08.2014 23:02

T Зарубежное кино [HDDVDRip / BDRip / WEB-DL / HDTV 1080/720р] Оборотень / Wer (Уильям Брент Белл) [2013 г., Ужасы, Триллер, Детектив, BDRip 1080p] Dub (RUS) + (GER) + Original (ENG) + Subs (GER) Чистый звук Ведьмочка
7 | 0

0 | 543

7

04.10.2014 15:26

T Зарубежное кино [HDDVDRip / BDRip / WEB-DL / HDTV 1080/720р] Оборотень / Wer (Уильям Брент Белл / William Brent Bell) [2013 г., ужасы, триллер, детектив, WEB-DL 720p] Dub (чистый звук) + Original (Eng) 90ytr90
8 | 1

0 | 272

7

26.11.2014 21:38



Последний раз редактировалось: nemos (07.02.2013 02:54), всего редактировалось 1 раз

19-Дек-2012 12:31

Топик был перенесен из форума Новинки кино [CAMRip, TS, DVDScr, WP, TC] в форум Наше кино [DVDRip, Low-Res HDRip, и т.д.]


gari
 

Яндекс.Метрика powered by Sphinx


В Н И М А Н И Е
Сайт не распространяет и не хранит электронные версии произведений, а лишь бесплатно и без коммерческой выгоды (не требуя взамен платы,
SMS и т.д.) предоставляет доступ к создаваемому пользователями каталогу ссылок на торрент-файлы, которые содержат только списки хеш-сумм.
Убедительная просьба с жалобами обращаться напрямую к пользователю, разместившему торрент файл.

Вверх