Loading...
Error

Завтра я выхожу замуж / Demain je me marie (Винсент Джованни) [2010, Комедия, SATRip] MVO

Статистика раздачи
Размер:  1,4 GB   |    Зарегистрирован:  3 года 11 месяцев   |    Скачан:  9 раз

Полного источника не было: 10 месяцев

Сидов:  0  |  0 KB/s  ]   Личеров:  0  |  0 KB/s  ]

* - сиды/пиры с внешних источников

   
 
Автор Сообщение

Garnett Пол:Муж

18-Дек-2012 15:31

Завтра я выхожу замуж / Demain je me marie
Страна: Франция
Студия: Aubes Productions
Жанр: Комедия
Год выпуска: 2010
Продолжительность: 01:29:10
Перевод: Профессиональный (многоголосый закадровый) Еврокино
Cубтитры: нет
Оригинальная аудиодорожка: нет
Режиссер: Винсент Джованни / Vincent Giovanni
В ролях: Дельфин Шанеак, Сагамор Стевенен, Жан-Шарль Шагашбанян, Мари-Кристин Адам, Гийом Делорм, Катрин Жакоб, Жемима Вест, Эльза Кикоин, Элоди Эм, Франсис Рено
Описание: Манон завтра выходит замуж. В спешке со своими последними свадебными приготовлениями, она сталкивается на улице с незнакомцем, который клянется, что она та самая "любовь всей его жизни". Манон не обращает внимания на странного незнакомца и возвращается домой к своим делам, хотя несколько обеспокоенная встречей. Ее жених Уильям знакомит ее со своим другом Жюльеном. Каково же ее удивление, когда она узнает что Жюльен - тот самый незнакомец. Но он дает ей знать, что спонтанное признание было лишь флиртом. Но когда Манон осознает, что у нее с Жюльеном много общего и она действительно могла бы быть "любовью всей его жизни", она начинает сомневаться в браке с Уильямом. У нее лишь одна ночь, чтобы принять решение...
Качество видео: SATRip
Формат видео: AVI
Видео: DivX 5 720x400 (16:9) 25.00fps Bit rate 2050 Kbps Bits/(Pixel*Frame) 0.285
Аудио: Dolby AC3 48000Hz 2ch 192kbps
General
Complete name : D:\Satrip\Фильмы\_Новые\Завтра я выхожу замуж\Zavtra.Ya.Wyhozhu.Zamuzh_satrip_by_vedigo .avi
Format : AVI
Format/Info : Audio Video Interleave
File size : 1.40 GiB
Duration : 1h 29mn
Overall bit rate : 2 252 Kbps
Writing library : VirtualDub build 32842/release
Video
ID : 0
Format : MPEG-4 Visual
Format settings, BVOP : 1
Format settings, QPel : No
Format settings, GMC : No warppoints
Format settings, Matrix : Default (H.263)
Muxing mode : Packed bitstream
Codec ID : DX50
Codec ID/Hint : DivX 5
Duration : 1h 29mn
Bit rate : 2 050 Kbps
Width : 720 pixels
Height : 400 pixels
Display aspect ratio : 16:9
Frame rate : 25.000 fps
Color space : YUV
Chroma subsampling : 4:2:0
Bit depth : 8 bits
Scan type : Progressive
Compression mode : Lossy
Bits/(Pixel*Frame) : 0.285
Stream size : 1.28 GiB (91%)
Writing library : DivX 6.1.0 (UTC 2005-12-12)
Audio
ID : 1
Format : AC-3
Format/Info : Audio Coding 3
Mode extension : CM (complete main)
Codec ID : 2000
Duration : 1h 29mn
Bit rate mode : Constant
Bit rate : 192 Kbps
Channel(s) : 2 channels
Channel positions : Front: L R
Sampling rate : 48.0 KHz
Bit depth : 16 bits
Compression mode : Lossy
Stream size : 122 MiB (9%)
Alignment : Aligned on interleaves
Interleave, duration : 40 ms (1.00 video frame)
Interleave, preload duration : 512 ms
picpicpic

Этот торрент недоступен для скачивания без регистрации, однако доступен по публичной magnet-ссылке (источники с публичных трекеров). Перед использованием ссылки прочтите, пожалуйста Пользовательское соглашение, а также как можно дольше оставайтесь на раздаче! Для того, чтобы скачать сам торрент-файл (который видит больше источников), а также для того, чтобы поблагодарить релизера, вам необходимо зарегистрироваться. Если регистрироваться лень - вы можете также попробовать скачать релиз по нашим партнерским ссылкам ниже.

[underverse.su].t22491.torrent
Трекер: Зарегистрирован   [ 18.12.2012 15:31 ]  

Статус: проверено (by garry at 18.12.2012 16:49)
Поблагодарили: 1 человек
Тип торрента: публичный - доступные источники с открытых трекеров: 
Размер: 1,4 GB (занимает 0,32 DVDR, для записи нужно 1 болванка DVDR/RW)
 
 

Яндекс.Метрика powered by Sphinx


В Н И М А Н И Е
Сайт не распространяет и не хранит электронные версии произведений, а лишь бесплатно и без коммерческой выгоды (не требуя взамен платы,
SMS и т.д.) предоставляет доступ к создаваемому пользователями каталогу ссылок на торрент-файлы, которые содержат только списки хеш-сумм.
Убедительная просьба с жалобами обращаться напрямую к пользователю, разместившему торрент файл.

Вверх