Loading...
Error

Все уже выросли / Dans la peau d'une grande (Паскаль Ламани) [2011, комедия, мелодрама, SATRip] MVO

Статистика раздачи
Размер:  1,37 GB   |    Зарегистрирован:  3 года 11 месяцев   |    Скачан:  2 раза

Полного источника не было: 3 года 1 месяц

Сидов:  0  |  0 KB/s  ]   Личеров:  0  |  0 KB/s  ]

* - сиды/пиры с внешних источников

   
 
Автор Сообщение

Garnett Пол:Муж

18-Дек-2012 15:18

Все уже выросли / Dans la peau d'une grande
Страна: Франция
Жанр: комедия, мелодрама
Год выпуска: 2011
Продолжительность: 01:32:33
Перевод: Профессиональный (многоголосый, закадровый)
Режиссер: Паскаль Ламани / Pascal Lahmani
В ролях: Клер Кейм , Мэтьё Делярив , Джули-Энн Рот , Мари-Армель Дегюй , Марк Риуфол , Pйnйlope Leveque , Ланник Готри , Софи Де Ферст , Benoit Blanc , Sybille De Crombruggen
Описание: Оливия - типичный подросток 90-х: любит слушать рок музыку, каждый день спорит со своими родителями из-за отметок в школе, проводит все свое свободное время со своей лучшей подругой Мари Лу, ненавидит математику и по уши влюблена в своего любимого парня Мэтью... Но однажды Оливия попадает в аварию и впадает в глубокую кому.
2010. Оливия просыпается красивой женщиной... Хорошие новости - ей не надо больше учить математику. Плохие новости - она все еще подросток в обличии 30 летней женщины! Теперь она обеспокоена только одним - возвращением Мэтью. Но только есть одна маленькая проблема: Мэтью женился на ее лучшей подруге Мари Лу!

Сэмпл
Качество: SATRip
Контейнер: AVI
Видео: XviD, 720x400 (16:9), 1908 kbps, 25 fps, 0,265 bpp
Аудио: MP3 / 2.0 / 48 kHz / 192 kbps /
General
Complete name : F:\Vse.uje.virosli.2011.SATRip.avi
Format : AVI
Format/Info : Audio Video Interleave
Format profile : OpenDML
File size : 1.37 GiB
Duration : 1h 32mn
Overall bit rate : 2 115 Kbps
Writing application : Lavf54.16.104
Video
ID : 0
Format : MPEG-4 Visual
Format profile : Simple@L3
Format settings, BVOP : No
Format settings, QPel : No
Format settings, GMC : No warppoints
Format settings, Matrix : Default (H.263)
Codec ID : XVID
Codec ID/Hint : XviD
Duration : 1h 32mn
Bit rate : 1 909 Kbps
Width : 720 pixels
Height : 400 pixels
Display aspect ratio : 16:9
Frame rate : 25.000 fps
Color space : YUV
Chroma subsampling : 4:2:0
Bit depth : 8 bits
Scan type : Progressive
Compression mode : Lossy
Bits/(Pixel*Frame) : 0.265
Stream size : 1.23 GiB (90%)
Writing library : XviD 64
Audio
ID : 1
Format : MPEG Audio
Format version : Version 1
Format profile : Layer 3
Codec ID : 55
Codec ID/Hint : MP3
Duration : 1h 32mn
Bit rate mode : Constant
Bit rate : 192 Kbps
Channel(s) : 2 channels
Sampling rate : 48.0 KHz
Compression mode : Lossy
Stream size : 127 MiB (9%)
Alignment : Aligned on interleaves
Interleave, duration : 24 ms (0.60 video frame)
Interleave, preload duration : 24 ms
picpicpic

Этот торрент недоступен для скачивания без регистрации, однако доступен по публичной magnet-ссылке (источники с публичных трекеров). Перед использованием ссылки прочтите, пожалуйста Пользовательское соглашение, а также как можно дольше оставайтесь на раздаче! Для того, чтобы скачать сам торрент-файл (который видит больше источников), а также для того, чтобы поблагодарить релизера, вам необходимо зарегистрироваться. Если регистрироваться лень - вы можете также попробовать скачать релиз по нашим партнерским ссылкам ниже.

[underverse.su].t22487.torrent
Трекер: Зарегистрирован   [ 18.12.2012 15:18 ]  

Статус: проверено (by garry at 18.12.2012 16:32)
Поблагодарили: пока никто не поблагодарил...
Тип торрента: публичный - доступные источники с открытых трекеров: 
Размер: 1,37 GB (занимает 0,31 DVDR, для записи нужно 1 болванка DVDR/RW)
 
 

Яндекс.Метрика powered by Sphinx


В Н И М А Н И Е
Сайт не распространяет и не хранит электронные версии произведений, а лишь бесплатно и без коммерческой выгоды (не требуя взамен платы,
SMS и т.д.) предоставляет доступ к создаваемому пользователями каталогу ссылок на торрент-файлы, которые содержат только списки хеш-сумм.
Убедительная просьба с жалобами обращаться напрямую к пользователю, разместившему торрент файл.

Вверх