Loading...
Error

Облачный атлас / Cloud Atlas (Лана Вачовски, Том Тыквер, Энди Вачовски) [2012 г., фантастика, драма, детектив, BDRip] Dub HQ Underverse

Статистика раздачи
Размер:  2,9 GB   |    Зарегистрирован:  3 года 11 месяцев   |    Скачан:  187 раз

Полного источника не было: 1 день 10 часов

Сидов:  0  |  0 KB/s  ]   Личеров:  0  |  0 KB/s  ]

* - сиды/пиры с внешних источников

   
 
Автор Сообщение

HQ Underverse 

17-Дек-2012 23:40

Облачный атлас / Cloud Atlas


Год выпуска: 2012
Жанр: фантастика, драма, детектив
Страна: Германия
Режиссер: Лана Вачовски, Том Тыквер, Энди Вачовски
В ролях: Том Хэнкс, Холли Берри, Джим Броудбент, Хьюго Уивинг, Джим Стёрджесс, Пэ Дуна, Бен Уишоу, Джеймс Д’Арси, Жу Жу, Кит Дэвид
Сюжет фильма:
Шесть историй — пять реинкарнаций, происходящих в разное время, тесно переплетаются между собой…

  • Мировая премьера: 8 сентября 2012
  • Российская премьера: 8 ноября 2012, «Двадцатый Век Фокс СНГ», «A Company»


Качество видео: BDRip [Облачный атлас / Cloud Atlas (2012) Blu-ray 1080p AVC DTS-HD 5.1 / HD Club]

Продолжительность: 02:52:07
Формат: avi
Видео: XviD, 720x304, 1958 kbps
Аудио: русский, дублированный [лицензия], AC3 5.1, 448 kbps

Код:

General
Complete name                            : D:\Video\Movies\Releases\Cloud.Atlas.2012.BDRip.XviD.AC3.Rus.D.HQ.Underverse.avi
Format                                   : AVI
Format/Info                              : Audio Video Interleave
Format profile                           : OpenDML
File size                                : 2.90 GiB
Duration                                 : 2h 52mn
Overall bit rate                         : 2 416 Kbps
Writing application                      : VirtualDubMod 1.5.10.2 (build 2540/release)
Writing library                          : VirtualDubMod build 2540/release

Video
ID                                       : 0
Format                                   : MPEG-4 Visual
Format profile                           : Advanced Simple@L5
Format settings, BVOP                    : 1
Format settings, QPel                    : No
Format settings, GMC                     : No warppoints
Format settings, Matrix                  : Custom
Muxing mode                              : Packed bitstream
Codec ID                                 : XVID
Codec ID/Hint                            : XviD
Duration                                 : 2h 52mn
Bit rate                                 : 1 958 Kbps
Width                                    : 720 pixels
Height                                   : 304 pixels
Display aspect ratio                     : 2.35:1
Frame rate                               : 23.976 fps
Color space                              : YUV
Chroma subsampling                       : 4:2:0
Bit depth                                : 8 bits
Scan type                                : Progressive
Compression mode                         : Lossy
Bits/(Pixel*Frame)                       : 0.373
Stream size                              : 2.35 GiB (81%)
Writing library                          : XviD 64

Audio
ID                                       : 1
Format                                   : AC-3
Format/Info                              : Audio Coding 3
Mode extension                           : CM (complete main)
Format settings, Endianness              : Big
Codec ID                                 : 2000
Duration                                 : 2h 52mn
Bit rate mode                            : Constant
Bit rate                                 : 448 Kbps
Channel(s)                               : 6 channels
Channel positions                        : Front: L C R, Side: L R, LFE
Sampling rate                            : 48.0 KHz
Bit depth                                : 16 bits
Compression mode                         : Lossy
Stream size                              : 552 MiB (19%)
Alignment                                : Split accross interleaves
Interleave, duration                     : 42 ms (1.00 video frame)
Interleave, preload duration             : 500 ms
Title                                    : Cloud.Atlas.2012.AC3.5.1.Rus.D.448.kbps.HQ.Underverse
Семпл: http://multi-up.com/804993

Релиз группы:

picpicpic
Для увеличения картинки щелкните мышкой по превью


Этот торрент недоступен для скачивания без регистрации, однако доступен по публичной magnet-ссылке (источники с публичных трекеров). Перед использованием ссылки прочтите, пожалуйста Пользовательское соглашение, а также как можно дольше оставайтесь на раздаче! Для того, чтобы скачать сам торрент-файл (который видит больше источников), а также для того, чтобы поблагодарить релизера, вам необходимо зарегистрироваться. Если регистрироваться лень - вы можете также попробовать скачать релиз по нашим партнерским ссылкам ниже.

[underverse.su].t22470.torrent
Трекер: Зарегистрирован   [ 18.12.2012 01:33 ]  

Статус: проверено (by garry at 18.12.2012 01:38)
Поблагодарили: 10 человек
Тип торрента: публичный - доступные источники с открытых трекеров: 
Размер: 2,9 GB (занимает 2/3 DVDR, для записи нужно 1 болванка DVDR/RW)
 
 
Похожие темы
Форум Тема Автор Торрент Отв. Посл. сооб.
Зарубежное кино [DVDRip, Low-Res HDRip, и т.д.] Облачный атлас / Cloud Atlas (Лана Вачовски, Том Тыквер, Энди Вачовски) [2012 г., фантастика, драма, детектив, DVDRip-AVC] Dub 90ytr90
4 | 0

0 | 1406

41

16.12.2012 09:05

Зарубежное кино [DVDRip, Low-Res HDRip, и т.д.] Облачный атлас / Cloud Atlas (Лана Вачовски, Том Тыквер, Энди Вачовски) [2012 г., фантастика, драма, детектив, BDRip-AVC] Dub 90ytr90
1 | 1

0 | 1646

59

17.12.2012 14:07

Зарубежное кино [DVDRip, Low-Res HDRip, и т.д.] Облачный атлас / Cloud Atlas (Лана Вачовски, Том Тыквер, Энди Вачовски) [2012 г., фантастика, драма, детектив, BDRip] Dub 90ytr90
8 | 0

5 | 1709

150

24.01.2013 13:15

Зарубежное кино [DVDRip, Low-Res HDRip, и т.д.] Облачный атлас / Cloud Atlas (Лана Вачовски, Том Тыквер, Энди Вачовски) [2012 г., фантастика, драма, детектив, BDRip] Dub 90ytr90
25 | 0

1 | 952

149

19.12.2012 12:48

Зарубежное кино [DVDRip, Low-Res HDRip, и т.д.] Облачный атлас / Cloud Atlas (Лана Вачовски, Том Тыквер, Энди Вачовски) [2012 г., фантастика, драма, детектив, BDRip-AVC] Dub TERRAN
43 | 0

0 | 1410

58

29.12.2012 12:39

Зарубежное кино [DVDRip, Low-Res HDRip, и т.д.] Облачный атлас / Cloud Atlas (Лана Вачовски / Lana Wachowski, Том Тыквер / Tom Tykwer, Энди Вачовски / Andy Wachowski) [2012 г., фантастика, драма, BDRip-AVC] Dub + Original (Eng) + Sub (Rus, Eng) 90ytr90
1 | 0

0 | 693

12

22.02.2015 11:32

Зарубежное кино [DVD / HDDVD / BD / Remux] Облачный атлас / Cloud Atlas (Лана Вачовски, Том Тыквер, Энди Вачовски) [2012 г., фантастика, драма, детектив, DVD9] R5 90ytr90
0 | 0

0 | 874

45

12.12.2012 20:14

Зарубежное кино [DVD / HDDVD / BD / Remux] Облачный атлас / Cloud Atlas (Лана Вачовски, Том Тыквер, Энди Вачовски) [2012 г., фантастика, драма, детектив, Blu-ray] Dub 90ytr90
0 | 0

1 | 1345

32

04.04.2013 20:58

Зарубежное кино [HDDVDRip / BDRip / WEB-DL / HDTV 1080/720р] Облачный атлас / Cloud Atlas (Лана Вачовски, Том Тыквер, Энди Вачовски) [2012 г., фантастика, драма, детектив, BDRip 720p] Dub 90ytr90
0 | 0

0 | 1026

83

17.12.2012 14:23

Зарубежное кино [HDDVDRip / BDRip / WEB-DL / HDTV 1080/720р] Облачный атлас / Cloud Atlas (Лана Вачовски / Lana Wachowski, Том Тыквер / Tom Tykwer, Энди Вачовски / Andy Wachowski) [2012 г., фантастика, драма, BDRip 1080p] Dub (BD) + 2xAVO (Сербин, Иванов) + VO... 90ytr90
44 | 2

0 | 577

3

22.02.2015 11:02


Яндекс.Метрика powered by Sphinx


В Н И М А Н И Е
Сайт не распространяет и не хранит электронные версии произведений, а лишь бесплатно и без коммерческой выгоды (не требуя взамен платы,
SMS и т.д.) предоставляет доступ к создаваемому пользователями каталогу ссылок на торрент-файлы, которые содержат только списки хеш-сумм.
Убедительная просьба с жалобами обращаться напрямую к пользователю, разместившему торрент файл.

Вверх