Loading...
Error

Призраки в Коннектикуте / The Haunting in Connecticut (Питер Корнвэлл) [2009, ужасы, триллер, драма, BDRip-AVC] Dub + Sub Rus + Original Eng

Статистика раздачи
Размер:  2,9 GB   |    Зарегистрирован:  3 года 11 месяцев   |    Скачан:  9 раз

Полного источника не было: 7 месяцев

Сидов:  0  |  0 KB/s  ]   Личеров:  0  |  0 KB/s  ]

* - сиды/пиры с внешних источников

   
 
Автор Сообщение

Garnett Пол:Муж

17-Дек-2012 12:45

Призраки в Коннектикуте / The Haunting in Connecticut


Страна: США, Канада
Жанр: ужасы, триллер, драма
Год выпуска: 2009
Продолжительность: 01:42:26
Перевод: Профессиональный (дублированный)
Cубтитры: русские
Оригинальная аудиодорожка: английский
Режиссер: Питер Корнвэлл / Peter Cornwell
Сценарий: Адам Саймон, Тим Меткалф
Продюсер: Пол Брукс, Дэниэл Фаррандс, Венди Роудс, ...
Оператор: Адам Свика
Композитор: Роберт Дж. Крал
Художник: Алиша Кивон, Эдвард Бонутто, Мэг МакМиллан, ...
Монтаж: Том Элкинс
В ролях: Вирджиния Мэдсен ("Призрак Дома на холме", "Горячая точка"), Кэйл Галлнер ("Кошмар на улице"), Элиас Котеас ("Волки-оборотни"), Ти Вуд, Мартин Донован, Софи Найт, Аманда Крю, Эрик Дж. Берг, Джон Блютнер, Д.В. Браун
Описание: История о семье, вынужденной переехать ближе к клинике, где их сын лечится от рака. И без того испытывающие финансовое и моральное напряжение, они обнаруживают, что их недавно отреставрированный дом хранит мрачные тайны. После нескольких столкновений со сверхъестественным как внутри, так и вне дома, семья обращается за помощью к охотникам за призраками и Католической церкви, проводящей обряд изгнания демонов.
сборы в США $55 389 516
сборы в мире + $22 138 216 = $77 527 732
сборы в России $533 304
DVD в США $16 386 518

Качество видео: BDRip-AVC
Формат видео: MKV
Видео: AVC 1104x470@23.976 fps ~3172 kBit/s 2.35:1
Аудио 1: Дубляж AC3 448 kBit/s 48 kHz 5.1 DD
Аудио 2: English AC3 448 kBit/s 48 kHz 5.1 DD
Формат субтитров: softsub (SRT)
General
Unique ID : 188493413709234533903199725831211989058 (0x8DCE82CF7847E2D89D544110BCB83842)
Complete name : F:\FILMS\___ - R - ___\The Haunting in Connecticut.mkv
Format : Matroska
Format version : Version 2
File size : 2.90 GiB
Duration : 1h 42mn
Overall bit rate : 4 051 Kbps
Encoded date : UTC 2012-12-16 10:35:52
Writing application : mkvmerge v5.6.0 ('Kenya Kane') built on May 27 2012 16:44:04
Writing library : libebml v1.2.3 + libmatroska v1.3.0
Video
ID : 1
Format : AVC
Format/Info : Advanced Video Codec
Format profile : High@L4.1
Format settings, CABAC : Yes
Format settings, ReFrames : 15 frames
Codec ID : V_MPEG4/ISO/AVC
Duration : 1h 42mn
Bit rate : 3 172 Kbps
Width : 1 104 pixels
Height : 470 pixels
Display aspect ratio : 2.35:1
Frame rate mode : Constant
Frame rate : 23.976 fps
Color space : YUV
Chroma subsampling : 4:2:0
Bit depth : 8 bits
Scan type : Progressive
Bits/(Pixel*Frame) : 0.255
Stream size : 2.20 GiB (76%)
Title : AVC 1104x470@23.976 fps ~3172 kBit/s 2-pass High 4.1 2.35:1
Writing library : x264 core 125 r2200bm 999b753
Encoding settings : cabac=1 / ref=15 / deblock=1:-1:-1 / analyse=0x3:0x133 / me=umh / subme=10 / psy=1 / psy_rd=1.00:0.00 / mixed_ref=1 / me_range=32 / chroma_me=1 / trellis=2 / 8x8dct=1 / cqm=0 / deadzone=21,11 / fast_pskip=0 / chroma_qp_offset=-2 / threads=6 / lookahead_threads=1 / sliced_threads=0 / nr=0 / decimate=1 / interlaced=0 / bluray_compat=0 / constrained_intra=0 / bframes=12 / b_pyramid=2 / b_adapt=2 / b_bias=0 / direct=3 / weightb=1 / open_gop=0 / weightp=2 / keyint=250 / keyint_min=23 / scenecut=40 / intra_refresh=0 / rc=2pass / mbtree=0 / bitrate=3172 / ratetol=1.0 / qcomp=0.90 / qpmin=0 / qpmax=69 / qpstep=4 / cplxblur=50.0 / qblur=0.5 / ip_ratio=1.45 / pb_ratio=1.45 / aq=2:1.15
Default : Yes
Forced : No
Audio #1
ID : 2
Format : AC-3
Format/Info : Audio Coding 3
Mode extension : CM (complete main)
Format settings, Endianness : Big
Codec ID : A_AC3
Duration : 1h 42mn
Bit rate mode : Constant
Bit rate : 448 Kbps
Channel(s) : 6 channels
Channel positions : Front: L C R, Side: L R, LFE
Sampling rate : 48.0 KHz
Bit depth : 16 bits
Compression mode : Lossy
Stream size : 328 MiB (11%)
Title : Дубляж AC3 448 kBit/s 48 kHz 5.1 DD
Language : Russian
Default : Yes
Forced : No
Audio #2
ID : 3
Format : AC-3
Format/Info : Audio Coding 3
Mode extension : CM (complete main)
Format settings, Endianness : Big
Codec ID : A_AC3
Duration : 1h 42mn
Bit rate mode : Constant
Bit rate : 448 Kbps
Channel(s) : 6 channels
Channel positions : Front: L C R, Side: L R, LFE
Sampling rate : 48.0 KHz
Bit depth : 16 bits
Compression mode : Lossy
Stream size : 328 MiB (11%)
Title : English AC3 448 kBit/s 48 kHz 5.1 DD
Language : English
Default : No
Forced : No
Text #1
ID : 4
Format : UTF-8
Codec ID : S_TEXT/UTF8
Codec ID/Info : UTF-8 Plain Text
Language : Russian
Default : No
Forced : No
Text #2
ID : 5
Format : UTF-8
Codec ID : S_TEXT/UTF8
Codec ID/Info : UTF-8 Plain Text
Language : English
Default : No
Forced : No
picpicpic

Этот торрент недоступен для скачивания без регистрации, однако доступен по публичной magnet-ссылке (источники с публичных трекеров). Перед использованием ссылки прочтите, пожалуйста Пользовательское соглашение, а также как можно дольше оставайтесь на раздаче! Для того, чтобы скачать сам торрент-файл (который видит больше источников), а также для того, чтобы поблагодарить релизера, вам необходимо зарегистрироваться. Если регистрироваться лень - вы можете также попробовать скачать релиз по нашим партнерским ссылкам ниже.

[underverse.su].t22459.torrent
Трекер: Зарегистрирован   [ 17.12.2012 12:45 ]  

Статус: проверено (by garry at 17.12.2012 14:06)
Поблагодарили: 3 человека
Тип торрента: публичный - доступные источники с открытых трекеров: 
Размер: 2,9 GB (занимает 2/3 DVDR, для записи нужно 1 болванка DVDR/RW)
 
 
Похожие темы
Форум Тема Автор Торрент Отв. Посл. сооб.
Зарубежное кино [DVDRip, Low-Res HDRip, и т.д.] Призраки в Коннектикуте 2: Тени прошлого / The Haunting in Connecticut 2: Ghosts of Georgia (Том Элкинс) [2013 г., ужасы, триллер, драма, WEB-DLRip] DVO (den904, DeadSno) 90ytr90
0 | 1

0 | 1172

27

05.02.2013 20:24

Зарубежное кино [DVDRip, Low-Res HDRip, и т.д.] Призраки в Коннектикуте 2: Тени прошлого / The Haunting in Connecticut 2: Ghosts of Georgia (Том Элкинс) [2013 г., ужасы, триллер, драма, HDRip] AVO (А.Дасевич) 90ytr90
3 | 0

0 | 1024

18

25.04.2013 16:30

Зарубежное кино [DVDRip, Low-Res HDRip, и т.д.] Призраки в Коннектикуте 2: Тени прошлого / The Haunting in Connecticut 2: Ghosts of Georgia (Том Элкинс) [2013 г., ужасы, триллер, драма, BDRip-AVC] AVO Чертёнок
36 | 0

0 | 496

9

26.04.2013 12:30


Яндекс.Метрика powered by Sphinx


В Н И М А Н И Е
Сайт не распространяет и не хранит электронные версии произведений, а лишь бесплатно и без коммерческой выгоды (не требуя взамен платы,
SMS и т.д.) предоставляет доступ к создаваемому пользователями каталогу ссылок на торрент-файлы, которые содержат только списки хеш-сумм.
Убедительная просьба с жалобами обращаться напрямую к пользователю, разместившему торрент файл.

Вверх