Loading...
Error

Извлечение / Extracted (Нир Панири) [2012, фантастика, драма, HDRip] DVO

Статистика раздачи
Размер:  700 MB   |    Зарегистрирован:  3 года 11 месяцев   |    Скачан:  5 раз

Полного источника не было: 3 года 10 месяцев

Сидов:  0  |  0 KB/s  ]   Личеров:  0  |  0 KB/s  ]

* - сиды/пиры с внешних источников

   
 
Автор Сообщение

Garnett Пол:Муж

17-Дек-2012 12:35

ИзвлечениеExtracted
Страна: США
Жанр: фантастика, драма
Год выпуска: 2012
Продолжительность: 01:28:53
Перевод: Любительский (двухголосый) [den904, DeadSno]
Режиссер: Нир Панири / Nir Paniry
В ролях: Саша Ройз , Дженни Моллен , Доминик Богарт , Ричард Риле , Ник Джеймисон , Родни Истман , Фрэнк Эшмор , Брэд Калвер , Тай Симпкинс , Сара Томко , Оджи Дьюк , Mattie Grace Campos
Описание: Главный герой Томас Джейкобс изобретает способ проникать в память людей и просматривать их воспоминания «своими глазами». Так он может возвращаться в собственные воспоминания и снова переживать счастливые моменты своей жизни. Но однажды Том вынужден действовать в разрез своим моральным принципам и использовать своё изобретение, чтобы войти в воспоминания одного наркомана и в буквальном смысле слова увидеть, совершал ли он преступление, в котором его обвиняют. Однако по причине повреждённости сознания преступника наркотиками, Том оказывается пойман в ловушке внутри его головы. Теперь ему предстоит прожить в памяти наркомана почти четыре года, до тех пор, пока он не обнаружит долгожданную возможность побега.
Сэмпл
Качество: HDRip [рип с Blu-Ray 1080p]
Контейнер: AVI
Видео: 640x272 (2.35:1), 23.976 fps, XviD build 50 ~963 kbps avg, 0.23 bit/pixel
Аудио: 48 kHz, MPEG Layer 3, 2 ch, ~128.00 kbps avg
Общее
Полное имя : F:\Extracted.2012.L2.HDRip.700.avi
Формат : AVI
Формат/Информация : Audio Video Interleave
Размер файла : 700 Мбайт
Продолжительность : 1 ч. 28 м.
Общий поток : 1101 Кбит/сек
Программа кодирования : VirtualDubMod 1.5.10.2 (build 2540/release)
Библиотека кодирования : VirtualDubMod build 2540/release
Видео
Идентификатор : 0
Формат : MPEG-4 Visual
Профиль формата : Advanced Simple@L5
Параметр BVOP формата : 2
Параметр QPel формата : Нет
Параметр GMC формата : Без точки перехода
Параметр матрицы формата : Default (H.263)
Идентификатор кодека : XVID
Идентификатор кодека/Подсказка : XviD
Продолжительность : 1 ч. 28 м.
Битрейт : 964 Кбит/сек
Ширина : 640 пикселей
Высота : 272 пикселя
Соотношение сторон : 2,35:1
Частота кадров : 23,976 кадра/сек
Цветовое пространство : YUV
Субдискретизация насыщенности : 4:2:0
Битовая глубина : 8 бит
Тип развёртки : Прогрессивная
Метод сжатия : С потерями
Бит/(Пиксели*Кадры) : 0.231
Размер потока : 613 Мбайт (88%)
Библиотека кодирования : XviD 1.2.1 (UTC 2008-12-04)
Аудио
Идентификатор : 1
Формат : MPEG Audio
Версия формата : Version 1
Профиль формата : Layer 3
Режим : Joint stereo
Расширение режима : MS Stereo
Идентификатор кодека : 55
Идентификатор кодека/Подсказка : MP3
Продолжительность : 1 ч. 28 м.
Вид битрейта : Постоянный
Битрейт : 128 Кбит/сек
Каналы : 2 канала
Частота : 48,0 КГц
Метод сжатия : С потерями
Размер потока : 81,4 Мбайт (12%)
Выравнивание : Соединение по промежуткам
Продолжительность промежутка : 42 мс. (1,00 видеокадр)
Время предзагрузки промежутка : 504 мс.
picpicpic

Этот торрент недоступен для скачивания без регистрации, однако доступен по публичной magnet-ссылке (источники с публичных трекеров). Перед использованием ссылки прочтите, пожалуйста Пользовательское соглашение, а также как можно дольше оставайтесь на раздаче! Для того, чтобы скачать сам торрент-файл (который видит больше источников), а также для того, чтобы поблагодарить релизера, вам необходимо зарегистрироваться. Если регистрироваться лень - вы можете также попробовать скачать релиз по нашим партнерским ссылкам ниже.

[underverse.su].t22457.torrent
Трекер: Зарегистрирован   [ 17.12.2012 12:35 ]  

Статус: проверено (by garry at 17.12.2012 14:01)
Поблагодарили: пока никто не поблагодарил...
Тип торрента: публичный - доступные источники с открытых трекеров: 
Размер: 700 MB (занимает 0,16 DVDR, для записи нужно 1 болванка DVDR/RW)
 
 
Похожие темы
Форум Тема Автор Торрент Отв. Посл. сооб.
Зарубежное кино [DVDRip, Low-Res HDRip, и т.д.] Извлечение / Extracted (Нир Панири) [2012 г., фантастика, драма, HDRip] DVO (den904, DeadSno) Jimmy
8 | 0

0 | 1233

20

16.12.2012 06:28

Зарубежное кино [DVDRip, Low-Res HDRip, и т.д.] Извлечение / Extracted (Нир Панири) [2012 г., фантастика, драма, HDRip] VO (Kerob) 90ytr90
120 | 0

0 | 1062

56

14.12.2012 13:35

Зарубежное кино [DVDRip, Low-Res HDRip, и т.д.] Извлечение / Extracted (Нир Панири) [2012 г., фантастика, драма, HDRip] VO (Kerob) 90ytr90
1 | 0

0 | 365

6

14.12.2012 13:38

Зарубежное кино [DVDRip, Low-Res HDRip, и т.д.] Извлечение / Extracted (Нир Панири) [2012, фантастика, драма, HDRip] MVO [BaiBako] Garnett
43 | 0

0 | 344

7

02.01.2013 13:30

Зарубежное кино [DVDRip, Low-Res HDRip, и т.д.] Извлечение / Extracted (Нир Панири) [2012, Фантастика, драма, BDRip] MVO (BaiBako) Garnett
10 | 0

0 | 502

24

02.01.2013 13:56

Зарубежное кино [DVDRip, Low-Res HDRip, и т.д.] Извлечение / Extracted (Нир Панири) [2012, фантастика, драма, BDRip-AVC] MVO (BaiBako), Original (Eng) + Sub (Eng, Fin, Swe) Garnett
38 | 1

0 | 1136

16

06.01.2013 09:51

Зарубежное кино [DVDRip, Low-Res HDRip, и т.д.] Извлечение / Extracted (Нир Панири) [2012, фантастика, драма, BDRip-AVC] MVO (BaiBako), Original (Eng) + Sub (Eng, Fin, Swe) Garnett
24 | 0

0 | 534

6

06.01.2013 09:56


Яндекс.Метрика powered by Sphinx


В Н И М А Н И Е
Сайт не распространяет и не хранит электронные версии произведений, а лишь бесплатно и без коммерческой выгоды (не требуя взамен платы,
SMS и т.д.) предоставляет доступ к создаваемому пользователями каталогу ссылок на торрент-файлы, которые содержат только списки хеш-сумм.
Убедительная просьба с жалобами обращаться напрямую к пользователю, разместившему торрент файл.

Вверх