Loading...
Error

Все выросли / Все уже выросли / Dans la peau d'une grande (Паскаль Ламани) [2011, мелодрама, TVRip] MVO (Еврокино)

Статистика раздачи
Размер:  3,64 GB   |    Зарегистрирован:  4 года 8 месяцев   |    Скачан:  1 раз

Полного источника не было: 4 года 8 месяцев

Сидов:  0  |  0 KB/s  ]   Личеров:  0  |  0 KB/s  ]

* - сиды/пиры с внешних источников

   
 
Автор Сообщение

Garnett Пол:Муж

17-Дек-2012 12:29

Все выросли / Все уже выросли / Dans la peau d'une grande
Страна: Франция
Жанр: мелодрама
Год выпуска: 2011
Продолжительность: 01:32:33
Перевод: Профессиональный (многоголосый закадровый) =Еврокино=
Cубтитры: нет
Режиссер: Паскаль Ламани / Pascal Lahmani
В ролях:
Марк Риуфол, Клер Кейм, Мари-Армель Дегюй, Джули-Энн Рот, Ланник Готри, Мэтьё Делярив, Софи Де Ферст, ...
Описание:
Оливия - типичный подросток 90-х: любит слушать рок музыку, каждый день спорит со своими родителями из-за отметок в школе, проводит все свое свободное время со своей лучшей подругой Мари Лу, ненавидит математику и по уши влюблена в своего любимого парня Мэтью... Но однажды Оливия попадает в аварию и впадает в глубокую кому. 2010. Оливия просыпается красивой женщиной... Хорошие новости - ей не надо больше учить математику. Плохие новости - она все еще подросток в обличии 30 летней женщины! Теперь она обеспокоена только одним - возвращением Мэтью. Но только есть одна маленькая проблема: Мэтью женился на ее лучшей подруге Мари Лу! Мир изменился, но только не она. Ее наивность не помогала ей выжить в этом мире. Но сейчас пришло время наверстать упущенное!
Доп. информация:
сценарий: Nathalie Abdelnour, Селин Гуйо, Мартин Гуйо
художники: Jean-Paul Ginet, Элизабет Меху
монтаж: Мэтью Долл
премьера (мир): 21 июня 2011
Сэмпл: http://www.sendspace.com/file/j9x58b
Качество видео: TVRip
Формат видео: MPEG-PS
Видео: MPEG2 Video, 720x576 (16:9) 25.00fps, ~5333, 0.514 bit/pixel
Аудио: MPEG Audio, 48000Hz, 2/0 (L,R) ch, 192 Kbps
Полное имя : G:\DVD\Все выросли (2011)\Dans la peau d'une grande.mpg
Формат : MPEG-PS
Размер файла : 3,64 Гбайт
Продолжительность : 1 ч. 32 м.
Общий поток : 5637 Кбит/сек
Видео
Идентификатор : 224 (0xE0)
Формат : MPEG Video
Версия формата : Version 2
Профиль формата : Main@Main
Параметр BVOP формата : Нет
Параметр матрицы формата : По умолчанию
Продолжительность : 1 ч. 32 м.
Вид битрейта : Переменный
Битрейт : 5333 Кбит/сек
Ширина : 720 пикселей
Высота : 576 пикселей
Соотношение сторон : 16:9
Частота кадров : 25,000 кадров/сек
Стандарт вещания : PAL
Цветовое пространство : YUV
Субдискретизация насыщенности : 4:2:0
Битовая глубина : 8 бит
Тип развёртки : Прогрессивная
Метод сжатия : С потерями
Бит/(Пиксели*Кадры) : 0.514
Размер потока : 3,45 Гбайт (95%)
Аудио
Идентификатор : 192 (0xC0)
Формат : MPEG Audio
Версия формата : Version 1
Профиль формата : Layer 2
Продолжительность : 1 ч. 32 м.
Вид битрейта : Постоянный
Битрейт : 192 Кбит/сек
Каналы : 2 канала
Частота : 48,0 КГц
Метод сжатия : С потерями
Размер потока : 127 Мбайт (3%)
picpicpic

Этот торрент недоступен для скачивания без регистрации, однако доступен по публичной magnet-ссылке (источники с публичных трекеров). Перед использованием ссылки прочтите, пожалуйста Пользовательское соглашение, а также как можно дольше оставайтесь на раздаче! Для того, чтобы скачать сам торрент-файл (который видит больше источников), а также для того, чтобы поблагодарить релизера, вам необходимо зарегистрироваться. Если регистрироваться лень - вы можете также попробовать скачать релиз по нашим партнерским ссылкам ниже.

[underverse.su].t22455.torrent
Трекер: Зарегистрирован   [ 17.12.2012 12:29 ]  

Статус: проверено (by garry at 17.12.2012 13:42)
Поблагодарили: пока никто не поблагодарил...
Тип торрента: публичный - доступные источники с открытых трекеров: 
Размер: 3,64 GB (занимает 0,83 DVDR, для записи нужно 1 болванка DVDR/RW)
 
 

Яндекс.Метрика powered by Sphinx


В Н И М А Н И Е
Сайт не распространяет и не хранит электронные версии произведений, а лишь бесплатно и без коммерческой выгоды (не требуя взамен платы,
SMS и т.д.) предоставляет доступ к создаваемому пользователями каталогу ссылок на торрент-файлы, которые содержат только списки хеш-сумм.
Убедительная просьба с жалобами обращаться напрямую к пользователю, разместившему торрент файл.

Вверх