Loading...
Error

Ширли / Ширли Бейси / Shirley (Колин Тига) [2011, драма, биографический, HDTVRip] MVO (Позитив)

 
Автор Сообщение

Garnett Пол:Муж

17-Дек-2012 12:14

Ширли / Ширли Бейси / Shirley
Страна: Великобритания
Жанр: драма, биографический
Год выпуска: 2011
Продолжительность: 01:09:53
Перевод: Профессиональный (многоголосый закадровый) =Позитив=
Cубтитры: нет
Режиссер: Колин Тига / Colin Teague
В ролях:
Лесли Шарп, Ларисса Уилсон, Рут Негга, Бабу Сизей, Виктория Паг, Джек Ллевелин, ...
Описание:
Драма повествует о восхождении к славе певицы Ширли Бэсси. Ширли была младшей из восьми детей в семье жившей за чертой бедности..В возрасте 15 лет она уже пела и танцевала в популярных шоу. Но случайная встреча с агентом Майком Салливаном изменяет жизнь Ширли навсегда. Он обещает сделать ее звездой, но не имеет представления о личной жертве которую придется принести подростку Ширли...
Доп. информация:
сценарий: Шела Стефенсон
продюсеры: Katherine Lannon, Кэтрин Льюис Дефи
оператор: Оле Брэтт Биркеланд
композитор: Бен Фостер
художник: Шарлотта Холдич
премьера (мир): 29 сентября 2011
Сэмпл: http://www.sendspace.com/file/8z9es8
Качество видео: HDTVRip
Формат видео: MPEG-PS
Видео: MPEG2 Video, 720x576 (16:9) 25.00fps, ~10,2, 0.988 bit/pixel
Аудио: MPEG Audio, 48000Hz, 2/0 (L,R) stereo, 192 Kbps
Полное имя : G:\DVD\Ширли Бейси (2011)\Shirley.mpg
Формат : MPEG-PS
Размер файла : 5,16 Гбайт
Продолжительность : 1 ч. 9 м.
Общий поток : 10,6 Мбит/сек
Видео
Идентификатор : 224 (0xE0)
Формат : MPEG Video
Версия формата : Version 2
Профиль формата : Main@Main
Параметр BVOP формата : Да
Параметр матрицы формата : По умолчанию
Продолжительность : 1 ч. 9 м.
Вид битрейта : Переменный
Битрейт : 10,2 Мбит/сек
Ширина : 720 пикселей
Высота : 576 пикселей
Соотношение сторон : 16:9
Частота кадров : 25,000 кадров/сек
Стандарт вещания : PAL
Цветовое пространство : YUV
Субдискретизация насыщенности : 4:2:0
Битовая глубина : 8 бит
Тип развёртки : Прогрессивная
Метод сжатия : С потерями
Бит/(Пиксели*Кадры) : 0.988
Размер потока : 4,96 Гбайт (96%)
Аудио
Идентификатор : 192 (0xC0)
Формат : MPEG Audio
Версия формата : Version 1
Профиль формата : Layer 2
Продолжительность : 1 ч. 9 м.
Вид битрейта : Постоянный
Битрейт : 192 Кбит/сек
Каналы : 2 канала
Частота : 48,0 КГц
Метод сжатия : С потерями
Размер потока : 96,0 Мбайт (2%)
picpicpic
[underverse.su].t22452.torrent
Трекер: Не зарегистрирован

Скачать

26 KB

Добавлен: 17.12.2012 12:14
Скачано: 0 раз  [ Список скачавших ]
   
 

Яндекс.Метрика powered by Sphinx


В Н И М А Н И Е
Сайт не распространяет и не хранит электронные версии произведений, а лишь бесплатно и без коммерческой выгоды (не требуя взамен платы,
SMS и т.д.) предоставляет доступ к создаваемому пользователями каталогу ссылок на торрент-файлы, которые содержат только списки хеш-сумм.
Убедительная просьба с жалобами обращаться напрямую к пользователю, разместившему торрент файл.

Вверх