Loading...
Error

Петля времени / Looper (Райан Джонсон) [2012 г., фантастика, боевик, триллер, криминал, BDRip] Dub + Original + MVO (Ukr) + Subs (Rus,Eng)

Статистика раздачи
Размер:  2,17 GB   |    Зарегистрирован:  3 года 11 месяцев   |    Скачан:  87 раз
Сидов:  1  |  0 KB/s  ]   Личеров:  0  |  0 KB/s  ]

* - сиды/пиры с внешних источников

   
 
Автор Сообщение

HQ Underverse 

16-Дек-2012 20:31

Петля времени / Looper


Год выпуска: 2012
Жанр: фантастика, боевик, триллер, криминал
Страна: США , Китай
Режиссер: Райан Джонсон
В ролях: Джозеф Гордон-Левитт, Брюс Уиллис, Эмили Блант, Джефф Дэниелс, Ной Сеган, Пирс Гэнон, Пол Дано, Пайпер Перабо, Квинг Ксу, Трейси Томс
Сюжет фильма:
В недалеком будущем, где стали возможны путешествия во времени, некая корпорация убирает нежелательных людей, отправляя их в прошлое в пластиковых пакетах. Задача принимающей стороны — убить жертву, стерев тем самым несчастного из истории. Все идет гладко до тех пор, пока главный герой не распаковывает очередной пакет, обнаруживая в нем… самого себя из будущего.

  • Мировая премьера: 6 сентября 2012
  • Российская премьера: 27 сентября 2012, «Top Film Distribution»


Качество видео: BDRip [Looper 2012 1080p Blu ray AVC DTS HD MA 5 1 HDChina]

Продолжительность: 01:58:53
Формат: avi
Видео: XviD, 720x304, 1700 kbps
Аудио #1: русский, дублированный [R5], AC3 5.1, 448 kbps
Аудио #2: английский, оригинал, AC3 5.1, 448 kbps
Аудио #3: украинский, многоголосый закадровый, AC3 5.1, 448 kbps (отдельно)
Субтитры #1: внешние, SRT, русский
Субтитры #2: внешние, SRT, английский
Субтитры #3: внешние, SRT, английский SDH

Код:

General
Complete name                    : D:\Video\Movies\Releases\Looper.2012.BDRip.XviD.AC3.Rus.D.Eng.O.HQ.Underverse.avi
Format                           : AVI
Format/Info                      : Audio Video Interleave
Format profile                   : OpenDML
File size                        : 2.17 GiB
Duration                         : 1h 58mn
Overall bit rate                 : 2 615 Kbps
Writing application              : VirtualDubMod 1.5.10.2 (build 2540/release)
Writing library                  : VirtualDubMod build 2540/release

Video
ID                               : 0
Format                           : MPEG-4 Visual
Format profile                   : Streaming Video@L1
Format settings, BVOP            : Yes
Format settings, QPel            : No
Format settings, GMC             : No warppoints
Format settings, Matrix          : Custom
Muxing mode                      : Packed bitstream
Codec ID                         : XVID
Codec ID/Hint                    : XviD
Duration                         : 1h 58mn
Bit rate                         : 1 701 Kbps
Width                            : 720 pixels
Height                           : 304 pixels
Display aspect ratio             : 2.35
Frame rate                       : 23.976 fps
Resolution                       : 24 bits
Colorimetry                      : 4:2:0
Scan type                        : Progressive
Bits/(Pixel*Frame)               : 0.324
Stream size                      : 1.41 GiB (65%)
Writing library                  : XviD 64

Audio #1
ID                               : 1
Format                           : AC-3
Format/Info                      : Audio Coding 3
Codec ID                         : 2000
Duration                         : 1h 58mn
Bit rate mode                    : Constant
Bit rate                         : 448 Kbps
Channel(s)                       : 6 channels
Channel positions                : Front: L C R, Surround: L R, LFE
Sampling rate                    : 48.0 KHz
Stream size                      : 381 MiB (17%)
Alignment                        : Split accross interleaves
Interleave, duration             : 42 ms (1.00 video frame)
Interleave, preload duration     : 500 ms
Title                            : Looper.2012.AC3.5.1.Rus.D.448.kbps.HQ.Underverse.ac3

Audio #2
ID                               : 2
Format                           : AC-3
Format/Info                      : Audio Coding 3
Codec ID                         : 2000
Duration                         : 1h 58mn
Bit rate mode                    : Constant
Bit rate                         : 448 Kbps
Channel(s)                       : 6 channels
Channel positions                : Front: L C R, Surround: L R, LFE
Sampling rate                    : 48.0 KHz
Stream size                      : 381 MiB (17%)
Alignment                        : Split accross interleaves
Interleave, duration             : 42 ms (1.00 video frame)
Interleave, preload duration     : 500 ms
Title                            : Looper.2012.AC3.5.1.Eng.O.448.kbps.HQ.Underverse.ac3

Семпл: http://multi-up.com/804510

Релиз группы:

picpicpic
Для увеличения картинки щелкните мышкой по превью

Этот торрент недоступен для скачивания без регистрации, однако доступен по публичной magnet-ссылке (источники с публичных трекеров). Перед использованием ссылки прочтите, пожалуйста Пользовательское соглашение, а также как можно дольше оставайтесь на раздаче! Для того, чтобы скачать сам торрент-файл (который видит больше источников), а также для того, чтобы поблагодарить релизера, вам необходимо зарегистрироваться. Если регистрироваться лень - вы можете также попробовать скачать релиз по нашим партнерским ссылкам ниже.

[underverse.su].t22448.torrent
Трекер: Зарегистрирован   [ 16.12.2012 20:31 ]  

Статус: проверено (by garry at 16.12.2012 23:14)
Поблагодарили: 6 человек
Тип торрента: публичный - доступные источники с открытых трекеров: 
Размер: 2,17 GB (занимает 1/2 DVDR, для записи нужно 1 болванка DVDR/RW)
 
 
Похожие темы
Форум Тема Автор Торрент Отв. Посл. сооб.
Зарубежное кино [DVDRip, Low-Res HDRip, и т.д.] Петля времени / Looper (Райан Джонсон / Rian Johnson) [2012 г., фантастика, боевик, триллер, HDRip] Dub [лицензия] 90ytr90
8 | 0

6 | 2474

3

06.11.2016 09:55

Зарубежное кино [DVDRip, Low-Res HDRip, и т.д.] Петля времени / Looper (Райан Джонсон) [2012 г., фантастика, боевик, триллер, HDRip] AVO (Дасевич) 90ytr90
12 | 1

0 | 155

0

06.11.2016 09:48

Зарубежное кино [DVDRip, Low-Res HDRip, и т.д.] Петля времени / Looper (Райан Джонсон / Rian Johnson) [2012 г., фантастика, боевик, триллер, BDRip] AVO (Володарский) 90ytr90
4 | 0

0 | 537

34

18.04.2014 04:40

Зарубежное кино [DVDRip, Low-Res HDRip, и т.д.] Петля времени / Looper (Райан Джонсон / Rian Johnson) [2012 г., фантастика, боевик, триллер, BDRip-AVC] Dub + Original (Eng) + Sub (Rus, Eng) 90ytr90
2 | 1

0 | 834

23

12.03.2016 07:09

xUSSR сериалы Петля времени / Серии: 1-4 из 4 ( Юрий Ильин) [2014 г., детектив, мистика, HDTVRip] konopic
2 | 0

2 | 1138

48

17.01.2014 17:13

Зарубежное кино [DVD / HDDVD / BD / Remux] Петля времени / Looper (Райан Джонсон) [2012 г., фантастика, боевик, триллер, DVD9] R5 90ytr90
0 | 0

0 | 1738

13

06.12.2012 20:05

Зарубежное кино [HDDVDRip / BDRip / WEB-DL / HDTV 1080/720р] Петля времени / Looper (Райан Джонсон / Rian Johnson) [2012 г., фантастика, боевик, триллер, BDRip 720p] Dub + Original 90ytr90
2 | 0

0 | 641

42

13.12.2012 19:00

Зарубежное кино [HDDVDRip / BDRip / WEB-DL / HDTV 1080/720р] Петля времени / Looper (Райан Джонсон / Rian Johnson) [2012 г., фантастика, боевик, триллер, BDRip 720p] Dub + 2xAVO (Дасевич, Володарский) 90ytr90
19 | 2

0 | 212

5

04.11.2016 14:27


Яндекс.Метрика powered by Sphinx


В Н И М А Н И Е
Сайт не распространяет и не хранит электронные версии произведений, а лишь бесплатно и без коммерческой выгоды (не требуя взамен платы,
SMS и т.д.) предоставляет доступ к создаваемому пользователями каталогу ссылок на торрент-файлы, которые содержат только списки хеш-сумм.
Убедительная просьба с жалобами обращаться напрямую к пользователю, разместившему торрент файл.

Вверх