Loading...
Error

Земное ядро / The Core (Джон Эмиел) [2003 г., фантастика, боевик, триллер, приключения, BDRip-AVC] Dub + Original + MVO + AVO

Статистика раздачи
Размер:  5,21 GB   |    Зарегистрирован:  3 года 11 месяцев   |    Скачан:  4 раза

Полного источника не было: 3 года 8 месяцев

Сидов:  0  |  0 KB/s  ]   Личеров:  0  |  0 KB/s  ]

* - сиды/пиры с внешних источников

   
 
Автор Сообщение

garry Пол:Муж

16-Дек-2012 16:56

Земное ядро / The Core


Год выпуска: 2003
Жанр: фантастика, боевик, триллер, приключения
Страна: США , Германия , Канада
Режиссер: Джон Эмиел
В ролях: Аарон Экхарт, Хилари Суэнк, Делрой Линдо, Стэнли Туччи, DJ Куаллс, Ричард Дженкинс, Чеки Карио, Брюс Гринвуд, Элфри Вудард, Кристофер Шайер
Сюжет фильма:
Герой картины, геофизик Джош Кийз, сделал шокирующее открытие: ядро земли перестало вращаться. Электромагнитное поле нашей планеты разрушается, и скоро Земля погибнет!

Есть лишь одна надежда: Кийз с командой первоклассных ученых отправится в экспедицию к остановившемуся ядру на уникальном термостойком корабле, чтобы… взорвать ядерный заряд. Этот взрыв должен будет заставить вращаться злополучное ядро, и человечество будет спасено! Путешествие к центру Земли начинается!

  • Мировая премьера: 25 марта 2003
  • Российская премьера: 24 апреля 2003, «Ист-Вест»


Качество видео: BDRip-AVC

Продолжительность: 02:14:57
Формат: MKV
Видео: x264, 1232x524, 3993 kbps
Аудио #1: русский, дублированный, AC3 2.0, 192 kbps
Аудио #2: английский, оригинал, AC3 5.1, 448 kbps
Аудио #3: русский, многоголосый закадровый [профессиональный], AC3 5.1, 448 kbps (отдельно)
Аудио #4: русский, одноголосый закадровый [авторский, Гаврилов], AC3 5.1, 448 kbps (отдельно)
Субтитры #1: тип: вшитые отключаемые, русский, формат: SRT
Субтитры #2: тип: вшитые отключаемые, английский, формат: SRT

Код:

General
 Unique ID : 175456004158681777979313364725294299113 (0x83FF98E445F4F6D8B692514A0059F7E9)
 Complete name : F:\FILMS\___ - R - ___\The CORE\The Core.mkv
 Format : Matroska
 Format version : Version 2
 File size : 4.37 GiB
 Duration : 2h 14mn
 Overall bit rate : 4 631 Kbps
 Encoded date : UTC 2012-12-14 19:48:54
 Writing application : mkvmerge v5.6.0 ('Kenya Kane') built on May 27 2012 16:44:04
 Writing library : libebml v1.2.3 + libmatroska v1.3.0

Video
 ID : 1
 Format : AVC
 Format/Info : Advanced Video Codec
 Format profile : High@L4.1
 Format settings, CABAC : Yes
 Format settings, ReFrames : 12 frames
 Codec ID : V_MPEG4/ISO/AVC
 Duration : 2h 14mn
 Bit rate : 3 993 Kbps
 Width : 1 232 pixels
 Height : 524 pixels
 Display aspect ratio : 2.35:1
 Frame rate mode : Constant
 Frame rate : 23.976 fps
 Color space : YUV
 Chroma subsampling : 4:2:0
 Bit depth : 8 bits
 Scan type : Progressive
 Bits/(Pixel*Frame) : 0.258
 Stream size : 3.68 GiB (84%)
 Title : AVC 1232x524@23.976 fps ~3993 kBit/s 2-pass High 4.1 2.35:1
 Writing library : x264 core 125 r2200bm 999b753
 Encoding settings : cabac=1 / ref=12 / deblock=1:-2:-2 / analyse=0x3:0x133 / me=umh / subme=10 / psy=1 / psy_rd=1.00:0.15 / mixed_ref=1 / me_range=48 / chroma_me=1 / trellis=2 / 8x8dct=1 / cqm=0 / deadzone=21,11 / fast_pskip=0 / chroma_qp_offset=-3 / threads=6 / lookahead_threads=1 / sliced_threads=0 / nr=0 / decimate=1 / interlaced=0 / bluray_compat=0 / constrained_intra=0 / bframes=12 / b_pyramid=2 / b_adapt=2 / b_bias=0 / direct=3 / weightb=1 / open_gop=0 / weightp=2 / keyint=250 / keyint_min=23 / scenecut=40 / intra_refresh=0 / rc=2pass / mbtree=0 / bitrate=3993 / ratetol=1.0 / qcomp=0.90 / qpmin=0 / qpmax=69 / qpstep=4 / cplxblur=50.0 / qblur=0.5 / ip_ratio=1.45 / pb_ratio=1.55 / aq=2:0.70
 Language : English
 Default : Yes
 Forced : No

Audio #1
 ID : 2
 Format : AC-3
 Format/Info : Audio Coding 3
 Mode extension : CM (complete main)
 Format settings, Endianness : Big
 Codec ID : A_AC3
 Duration : 2h 14mn
 Bit rate mode : Constant
 Bit rate : 192 Kbps
 Channel(s) : 2 channels
 Channel positions : Front: L R
 Sampling rate : 48.0 KHz
 Bit depth : 16 bits
 Compression mode : Lossy
 Stream size : 185 MiB (4%)
 Title : Дубляж AC3 192 kBit/s 48 kHz 2.0 DD
 Language : Russian
 Default : Yes
 Forced : No

Audio #2
 ID : 3
 Format : AC-3
 Format/Info : Audio Coding 3
 Mode extension : CM (complete main)
 Format settings, Endianness : Big
 Codec ID : A_AC3
 Duration : 2h 14mn
 Bit rate mode : Constant
 Bit rate : 448 Kbps
 Channel(s) : 6 channels
 Channel positions : Front: L C R, Side: L R, LFE
 Sampling rate : 48.0 KHz
 Bit depth : 16 bits
 Compression mode : Lossy
 Stream size : 432 MiB (10%)
 Title : English AC3 448 kBit/s 48 kHz 5.1 DD
 Language : English
 Default : No
 Forced : No

Text #1
 ID : 4
 Format : UTF-8
 Codec ID : S_TEXT/UTF8
 Codec ID/Info : UTF-8 Plain Text
 Language : Russian
 Default : No
 Forced : No

Text #2
 ID : 5
 Format : UTF-8
 Codec ID : S_TEXT/UTF8
 Codec ID/Info : UTF-8 Plain Text
 Language : English
 Default : No
 Forced : No
Семпл: http://narod.ru/disk/64519760001.f39171f81056d3153d52afd4faf15e6e/The%20Core%20(1)-002.mkv.html

Релиз группы:

picpicpic
Для увеличения картинки щелкните мышкой по превью

Этот торрент недоступен для скачивания без регистрации, однако доступен по публичной magnet-ссылке (источники с публичных трекеров). Перед использованием ссылки прочтите, пожалуйста Пользовательское соглашение, а также как можно дольше оставайтесь на раздаче! Для того, чтобы скачать сам торрент-файл (который видит больше источников), а также для того, чтобы поблагодарить релизера, вам необходимо зарегистрироваться. Если регистрироваться лень - вы можете также попробовать скачать релиз по нашим партнерским ссылкам ниже.

[underverse.su].t22440.torrent
Трекер: Зарегистрирован   [ 16.12.2012 16:56 ]  

Статус: проверено (by garry at 16.12.2012 16:57)
Поблагодарили: пока никто не поблагодарил...
Тип торрента: публичный - доступные источники с открытых трекеров: 
Размер: 5,21 GB (занимает 1,19 DVDR, для записи нужно 2 болванки DVDR/RW)
 
 
Похожие темы
Форум Тема Автор Торрент Отв. Посл. сооб.
Зарубежное кино [DVDRip, Low-Res HDRip, и т.д.] Земное ядро / The Core (Джон Эмиел) [2003 г., фантастика, боевик, триллер, приключения, HDRip] Dub RG NewCinema
0 | 0

0 | 382

10

25.09.2012 06:10


Яндекс.Метрика powered by Sphinx


В Н И М А Н И Е
Сайт не распространяет и не хранит электронные версии произведений, а лишь бесплатно и без коммерческой выгоды (не требуя взамен платы,
SMS и т.д.) предоставляет доступ к создаваемому пользователями каталогу ссылок на торрент-файлы, которые содержат только списки хеш-сумм.
Убедительная просьба с жалобами обращаться напрямую к пользователю, разместившему торрент файл.

Вверх