Loading...
Error

Десять негритят (Станислав Говорухин) [1987 г., криминал, детектив, DVDRip]

Статистика раздачи
Размер:  2,2 GB   |    Зарегистрирован:  3 года 11 месяцев   |    Скачан:  10 раз

Полного источника не было: 2 месяца 19 дней

Сидов:  0  |  0 KB/s  ]   Личеров:  0  |  0 KB/s  ]

* - сиды/пиры с внешних источников

   
 
Автор Сообщение

garry Пол:Муж

16-Дек-2012 16:41

Десять негритят


Год выпуска: 1987
Жанр: криминал, детектив
Страна: СССР
Режиссер: Станислав Говорухин
В ролях: Владимир Зельдин, Татьяна Друбич, Александр Кайдановский, Алексей Жарков, Анатолий Ромашин, Людмила Максакова, Михаил Глузский, Алексей Золотницкий, Ирина Терещенко, Александр Абдулов
Сюжет фильма:
Десять человек приглашены на Негритянский остров под разными предлогами. Оказавшись в замке, каждый слышит записанный на пластинку смертный приговор. На столе — черные фигурки негритят, в каждой спальне — стишок на стене. «Десять негритят решили пообедать, один из них вдруг поперхнулся, и их осталось девять». Умирает человек — исчезает фигурка негритенка…

  • Мировая премьера: 31 января 1988


Качество видео: DVDRip

Продолжительность: 01:01:31 + 01:07:57
Формат: AVI
Видео #1: XviD, 640x480, 2004 kbps
Видео #2: XviD, 640x480, 1938 kbps
Аудио: русский, оригинал, AC3 5.1, 448 kbps

Код:

Полное имя : Desyat negrityat\Part 1.avi
 Формат : AVI
 Формат/Информация : Audio Video Interleave
 Размер файла : 1,06 Гбайт
 Продолжительность : 1 ч. 1 м.
 Общий поток : 2462 Кбит/сек
 Программа кодирования : VirtualDubMod 1.5.10.3 (build 2550/release)
 Библиотека кодирования : VirtualDubMod build 2550/release

Видео
 Идентификатор : 0
 Формат : MPEG-4 Visual
 Профиль формата : Advanced Simple@L5
 Параметр BVOP формата : 1
 Параметр QPel формата : Нет
 Параметр GMC формата : Без точки перехода
 Параметр матрицы формата : Выборочная
 Идентификатор кодека : XVID
 Идентификатор кодека/Подсказка : XviD
 Продолжительность : 1 ч. 1 м.
 Битрейт : 2004 Кбит/сек
 Ширина : 640 пикселей
 Высота : 480 пикселей
 Соотношение сторон : 4:3
 Частота кадров : 25,000 кадров/сек
 Цветовое пространство : YUV
 Субдискретизация насыщенности : 4:2:0
 Битовая глубина : 8 бит
 Тип развёртки : Прогрессивная
 Метод сжатия : С потерями
 Бит/(Пиксели*Кадры) : 0.261
 Размер потока : 882 Мбайт (81%)
 Библиотека кодирования : XviD 1.2.1 (UTC 2008-12-04)

Аудио
 Идентификатор : 1
 Формат : AC-3
 Формат/Информация : Audio Coding 3
 Расширение режима : CM (complete main)
 Параметр Endianness формата : Big
 Идентификатор кодека : 2000
 Продолжительность : 1 ч. 1 м.
 Вид битрейта : Постоянный
 Битрейт : 448 Кбит/сек
 Каналы : 6 каналов
 Расположение каналов : Front: L C R, Side: L R, LFE
 Частота : 48,0 КГц
 Битовая глубина : 16 бит
 Метод сжатия : С потерями
 Размер потока : 197 Мбайт (18%)
 Выравнивание : Разделение по промежуткам
 Продолжительность промежутка : 40 мс. (1,00 видеокадр)
 Время предзагрузки промежутка : 500 мс.

Полное имя : Desyat negrityat\Part 2.avi
 Формат : AVI
 Формат/Информация : Audio Video Interleave
 Размер файла : 1,14 Гбайт
 Продолжительность : 1 ч. 7 м.
 Общий поток : 2396 Кбит/сек
 Программа кодирования : VirtualDubMod 1.5.10.3 (build 2550/release)
 Библиотека кодирования : VirtualDubMod build 2550/release

Видео
 Идентификатор : 0
 Формат : MPEG-4 Visual
 Профиль формата : Advanced Simple@L5
 Параметр BVOP формата : 1
 Параметр QPel формата : Нет
 Параметр GMC формата : Без точки перехода
 Параметр матрицы формата : Выборочная
 Идентификатор кодека : XVID
 Идентификатор кодека/Подсказка : XviD
 Продолжительность : 1 ч. 7 м.
 Битрейт : 1938 Кбит/сек
 Ширина : 640 пикселей
 Высота : 480 пикселей
 Соотношение сторон : 4:3
 Частота кадров : 25,000 кадров/сек
 Цветовое пространство : YUV
 Субдискретизация насыщенности : 4:2:0
 Битовая глубина : 8 бит
 Тип развёртки : Прогрессивная
 Метод сжатия : С потерями
 Бит/(Пиксели*Кадры) : 0.252
 Размер потока : 942 Мбайт (81%)
 Библиотека кодирования : XviD 1.2.1 (UTC 2008-12-04)

Аудио
 Идентификатор : 1
 Формат : AC-3
 Формат/Информация : Audio Coding 3
 Расширение режима : CM (complete main)
 Параметр Endianness формата : Big
 Идентификатор кодека : 2000
 Продолжительность : 1 ч. 7 м.
 Вид битрейта : Постоянный
 Битрейт : 448 Кбит/сек
 Каналы : 6 каналов
 Расположение каналов : Front: L C R, Side: L R, LFE
 Частота : 48,0 КГц
 Битовая глубина : 16 бит
 Метод сжатия : С потерями
 Размер потока : 218 Мбайт (19%)
 Выравнивание : Разделение по промежуткам
 Продолжительность промежутка : 40 мс. (1,00 видеокадр)
 Время предзагрузки промежутка : 500 мс.
Семпл: http://multi-up.com/804418

Релиз группы:

pic pic pic
Для увеличения картинки щелкните мышкой по превью

Этот торрент недоступен для скачивания без регистрации, однако доступен по публичной magnet-ссылке (источники с публичных трекеров). Перед использованием ссылки прочтите, пожалуйста Пользовательское соглашение, а также как можно дольше оставайтесь на раздаче! Для того, чтобы скачать сам торрент-файл (который видит больше источников), а также для того, чтобы поблагодарить релизера, вам необходимо зарегистрироваться. Если регистрироваться лень - вы можете также попробовать скачать релиз по нашим партнерским ссылкам ниже.

[underverse.su].t22439.torrent
Трекер: Зарегистрирован   [ 16.12.2012 16:41 ]  

Статус: проверено (by garry at 16.12.2012 16:42)
Поблагодарили: 1 человек
Тип торрента: публичный - доступные источники с открытых трекеров: 
Размер: 2,2 GB (занимает 0,5 DVDR, для записи нужно 1 болванка DVDR/RW)
 
 

Яндекс.Метрика powered by Sphinx


В Н И М А Н И Е
Сайт не распространяет и не хранит электронные версии произведений, а лишь бесплатно и без коммерческой выгоды (не требуя взамен платы,
SMS и т.д.) предоставляет доступ к создаваемому пользователями каталогу ссылок на торрент-файлы, которые содержат только списки хеш-сумм.
Убедительная просьба с жалобами обращаться напрямую к пользователю, разместившему торрент файл.

Вверх