Loading...
Error

Извлечение / Extracted (Нир Панири) [2012 г., фантастика, драма, HDRip] DVO (den904, DeadSno)

Статистика раздачи
Размер:  1,37 GB   |    Зарегистрирован:  3 года 11 месяцев   |    Скачан:  20 раз

Полного источника не было: 2 года 10 месяцев

Сидов:  0  |  0 KB/s  ]   Личеров:  0  |  0 KB/s  ]

* - сиды/пиры с внешних источников

   
 
Автор Сообщение

Jimmy Пол:Муж

16-Дек-2012 06:28

Извлечение / Extracted

Год выпуска: 2012
Жанр: фантастика, драма
Страна: США
Режиссер: Nir Paniry
В ролях: Саша Ройз, Дженни Моллен, Доминик Богарт, Ричард Риле, Ник Джеймисон, Родни Истман, Фрэнк Эшмор, Брэд Калвер, Тай Симпкинс, Сара Томко
Сюжет фильма:
Главный герой Томас Джейкобс изобретает способ проникать в память людей и просматривать их воспоминания «своими глазами». Так он может возвращаться в собственные воспоминания и снова переживать счастливые моменты своей жизни. Но однажды Том вынужден действовать в разрез своим моральным принципам и использовать своё изобретение, чтобы войти в воспоминания одного наркомана и в буквальном смысле слова увидеть, совершал ли он преступление, в котором его обвиняют. Однако по причине повреждённости сознания преступника наркотиками, Том оказывается пойман в ловушке внутри его головы. Теперь ему предстоит прожить в памяти наркомана почти четыре года, до тех пор, пока он не обнаружит долгожданную возможность побега.

  • Мировая премьера: 10 марта 2012


Качество видео: HDRip

Продолжительность: 01:28:53
Формат: avi
Видео: XviD, 720x304, 1656 kbps
Аудио: русский, двухголосый закадровый [любительский] [den904, DeadSno], AC3 5.1, 448 kbps

Код:

General
Complete name                    : F:\Under\blablabla\_на время конкурса\Izvlecenie.2012.L2.HDRip.1400MB.avi
Format                           : AVI
Format/Info                      : Audio Video Interleave
File size                        : 1.37 GiB
Duration                         : 1h 28mn
Overall bit rate                 : 2 201 Kbps
Writing application              : VirtualDubMod 1.5.10.2 (build 2540/release)
Writing library                  : VirtualDubMod build 2540/release

Video
ID                               : 0
Format                           : MPEG-4 Visual
Format profile                   : Streaming Video@L1
Format settings, BVOP            : Yes
Format settings, QPel            : No
Format settings, GMC             : No warppoints
Format settings, Matrix          : Custom
Codec ID                         : XVID
Codec ID/Hint                    : XviD
Duration                         : 1h 28mn
Bit rate                         : 1 657 Kbps
Width                            : 720 pixels
Height                           : 304 pixels
Display aspect ratio             : 2.35
Frame rate                       : 23.976 fps
Resolution                       : 24 bits
Colorimetry                      : 4:2:0
Scan type                        : Progressive
Bits/(Pixel*Frame)               : 0.316
Stream size                      : 1.03 GiB (75%)
Writing library                  : XviD 1.2.1 (UTC 2008-12-04)

Audio
ID                               : 1
Format                           : AC-3
Format/Info                      : Audio Coding 3
Codec ID                         : 2000
Duration                         : 1h 28mn
Bit rate mode                    : Constant
Bit rate                         : 448 Kbps
Channel(s)                       : 6 channels
Channel positions                : Front: L C R, Surround: L R, LFE
Sampling rate                    : 48.0 KHz
Stream size                      : 285 MiB (20%)
Alignment                        : Split accross interleaves

Семпл: http://multi-up.com/804094

picpicpic
Для увеличения картинки щелкните мышкой по превью

Этот торрент недоступен для скачивания без регистрации, однако доступен по публичной magnet-ссылке (источники с публичных трекеров). Перед использованием ссылки прочтите, пожалуйста Пользовательское соглашение, а также как можно дольше оставайтесь на раздаче! Для того, чтобы скачать сам торрент-файл (который видит больше источников), а также для того, чтобы поблагодарить релизера, вам необходимо зарегистрироваться. Если регистрироваться лень - вы можете также попробовать скачать релиз по нашим партнерским ссылкам ниже.

[underverse.su].t22417.torrent
Трекер: Зарегистрирован   [ 16.12.2012 06:39 ]  

Статус: проверено (by Паукан at 16.12.2012 09:41)
Поблагодарили: 1 человек
Тип торрента: публичный - доступные источники с открытых трекеров: 
Размер: 1,37 GB (занимает 0,31 DVDR, для записи нужно 1 болванка DVDR/RW)
 
 
Похожие темы
Форум Тема Автор Торрент Отв. Посл. сооб.
Зарубежное кино [DVDRip, Low-Res HDRip, и т.д.] Извлечение / Extracted (Нир Панири) [2012 г., фантастика, драма, HDRip] VO (Kerob) 90ytr90
120 | 0

0 | 1064

56

14.12.2012 13:35

Зарубежное кино [DVDRip, Low-Res HDRip, и т.д.] Извлечение / Extracted (Нир Панири) [2012 г., фантастика, драма, HDRip] VO (Kerob) 90ytr90
1 | 0

0 | 365

6

14.12.2012 13:38

Зарубежное кино [DVDRip, Low-Res HDRip, и т.д.] Извлечение / Extracted (Нир Панири) [2012, фантастика, драма, HDRip] DVO Garnett
3 | 0

0 | 421

5

17.12.2012 12:35

Зарубежное кино [DVDRip, Low-Res HDRip, и т.д.] Извлечение / Extracted (Нир Панири) [2012, фантастика, драма, HDRip] MVO [BaiBako] Garnett
43 | 0

0 | 347

7

02.01.2013 13:30

Зарубежное кино [DVDRip, Low-Res HDRip, и т.д.] Извлечение / Extracted (Нир Панири) [2012, Фантастика, драма, BDRip] MVO (BaiBako) Garnett
10 | 0

0 | 503

24

02.01.2013 13:56

Зарубежное кино [DVDRip, Low-Res HDRip, и т.д.] Извлечение / Extracted (Нир Панири) [2012, фантастика, драма, BDRip-AVC] MVO (BaiBako), Original (Eng) + Sub (Eng, Fin, Swe) Garnett
38 | 1

0 | 1138

16

06.01.2013 09:51

Зарубежное кино [DVDRip, Low-Res HDRip, и т.д.] Извлечение / Extracted (Нир Панири) [2012, фантастика, драма, BDRip-AVC] MVO (BaiBako), Original (Eng) + Sub (Eng, Fin, Swe) Garnett
24 | 0

0 | 535

6

06.01.2013 09:56


Яндекс.Метрика powered by Sphinx


В Н И М А Н И Е
Сайт не распространяет и не хранит электронные версии произведений, а лишь бесплатно и без коммерческой выгоды (не требуя взамен платы,
SMS и т.д.) предоставляет доступ к создаваемому пользователями каталогу ссылок на торрент-файлы, которые содержат только списки хеш-сумм.
Убедительная просьба с жалобами обращаться напрямую к пользователю, разместившему торрент файл.

Вверх