Loading...
Error

Оборотень: Зверь среди нас / Werewolf: The Beast Among Us (Луи Морно) [2012, Ужасы, триллер, HDRip] Dub

Статистика раздачи
Размер:  698 MB   |    Зарегистрирован:  3 года 11 месяцев   |    Скачан:  3 раза

Полного источника не было: 3 года 10 месяцев

Сидов:  0  |  0 KB/s  ]   Личеров:  0  |  0 KB/s  ]

* - сиды/пиры с внешних источников

   
 
Автор Сообщение

Garnett Пол:Муж

15-Дек-2012 18:41

Оборотень: Зверь среди нас / Werewolf: The Beast Among Us
Страна: США
Жанр: Ужасы, триллер
Год выпуска: 2012
Продолжительность: 01:33:23
Перевод: Профессиональный (дублированный) Universal 1440 Entertainment
Cубтитры: нет
Оригинальная аудиодорожка: нет
Режиссер: Луи Морно / Louis Morneau
В ролях: Стивен Бауэр, Эд Куинн, Ниа Пиплз, Стивен Ри, Золтан Бутуч, Рэйчел ДиПилло, Ана Улару,Адам Кроусделл, Гай Уилсон, Разван Георгиу
Описание: Действие фильма разворачивается в небольшой деревушке девятнадцатого века. Молодой человек, изучающий врачебное дело под руководстом местного доктора, решает вступить в ряды охотников за оборотнями, когда жители деревни начинают гибнуть один за другим от лап неведомого зверя. Кто он, этот монстр? Один из жителей деревни или нечто совершенно неведомое? Человек днем, чудовище ночью.
Сэмпл: http://multi-up.com/802671
Качество видео: HDRip (исход не известен)
Формат видео: AVI
Видео: 640x352 (1.82:1), 23.976 fps, XviD build 50 ~907 kbps avg, 0.17 bit/pixel
Аудио: 48 kHz, MPEG Layer 3, 2 ch, ~128.00 kbps avg
Общее
Полное имя : S:\Фильмы\Oboroten.Zver.sredi.nas.2012.D.HDRip.700MB.avi
Формат : AVI
Формат/Информация : Audio Video Interleave
Размер файла : 698 Мбайт
Продолжительность : 1 ч. 33 м.
Общий поток : 1045 Кбит/сек
Программа кодирования : VirtualDubMod 1.5.10.2 (build 2540/release)
Библиотека кодирования : VirtualDubMod build 2540/release
Видео
Идентификатор : 0
Формат : MPEG-4 Visual
Профиль формата : Advanced Simple@L5
Параметр BVOP формата : 2
Параметр QPel формата : Нет
Параметр GMC формата : Без точки перехода
Параметр матрицы формата : Выборочная
Идентификатор кодека : XVID
Идентификатор кодека/Подсказка : XviD
Продолжительность : 1 ч. 33 м.
Битрейт : 908 Кбит/сек
Ширина : 640 пикс.
Высота : 352 пикс.
Соотношение сторон : 16:9
Частота кадров : 23,976 кадр/сек
Цветовое пространство : YUV
Подвыборка цветности : 4:2:0
Битовая глубина : 8 бит
Тип развёртки : Прогрессивная
Метод сжатия : С потерями
Бит/(Пиксели*Кадры) : 0.168
Размер потока : 607 Мбайт (87%)
Библиотека кодирования : XviD 1.2.1 (UTC 2008-12-04)
Аудио
Идентификатор : 1
Формат : MPEG Audio
Версия формата : Version 1
Профиль формата : Layer 3
Идентификатор кодека : 55
Идентификатор кодека/Подсказка : MP3
Продолжительность : 1 ч. 33 м.
Вид битрейта : Постоянный
Битрейт : 128 Кбит/сек
Каналы : 2 канала
Частота : 48,0 КГц
Метод сжатия : С потерями
Размер потока : 85,5 Мбайт (12%)
Выравнивание : Соединение по промежуткам
Продолжительность промежутка : 42 мс. (1,00 видеокадр)
Время предзагрузки промежутка : 504 ms
Библиотека кодирования : LAME3.99.1
picpicpic

Этот торрент недоступен для скачивания без регистрации, однако доступен по публичной magnet-ссылке (источники с публичных трекеров). Перед использованием ссылки прочтите, пожалуйста Пользовательское соглашение, а также как можно дольше оставайтесь на раздаче! Для того, чтобы скачать сам торрент-файл (который видит больше источников), а также для того, чтобы поблагодарить релизера, вам необходимо зарегистрироваться. Если регистрироваться лень - вы можете также попробовать скачать релиз по нашим партнерским ссылкам ниже.

[underverse.su].t22400.torrent
Трекер: Зарегистрирован   [ 15.12.2012 18:41 ]  

Статус: проверено (by Lebedeff at 15.12.2012 19:41)
Поблагодарили: пока никто не поблагодарил...
Тип торрента: публичный - доступные источники с открытых трекеров: 
Размер: 698 MB (занимает 0,16 DVDR, для записи нужно 1 болванка DVDR/RW)
 
 
Похожие темы
Форум Тема Автор Торрент Отв. Посл. сооб.
Зарубежное кино [DVDRip, Low-Res HDRip, и т.д.] Оборотень: Зверь среди нас / Werewolf: The Beast Among Us (Луи Морно) [2012 г., ужасы, триллер, HDRip] Dub 90ytr90
0 | 0

0 | 802

22

12.12.2012 19:31

Зарубежное кино [HDDVDRip / BDRip / WEB-DL / HDTV 1080/720р] Оборотень: Зверь среди нас / Werewolf: The Beast Among Us (Луи Морно) [2012 г., Ужасы, триллер, BDRip 1080p] H. Ledger
0 | 1

1 | 575

3

13.12.2012 11:37


Яндекс.Метрика powered by Sphinx


В Н И М А Н И Е
Сайт не распространяет и не хранит электронные версии произведений, а лишь бесплатно и без коммерческой выгоды (не требуя взамен платы,
SMS и т.д.) предоставляет доступ к создаваемому пользователями каталогу ссылок на торрент-файлы, которые содержат только списки хеш-сумм.
Убедительная просьба с жалобами обращаться напрямую к пользователю, разместившему торрент файл.

Вверх