Loading...
Error

Во все тяжкие / Breaking Bad / Сезон 1 / Серии: 1-7 (7) (Адам Бернштейн) [2008 г., триллер, драма, криминал, WEBDLRip] MVO (LostFilm)

Статистика раздачи
Размер:  3,05 GB   |    Зарегистрирован:  3 года 11 месяцев   |    Скачан:  175 раз

Полного источника не было: 2 часа 12 минут

Сидов:  0  |  0 KB/s  ]   Личеров:  0  |  0 KB/s  ]

* - сиды/пиры с внешних источников

   
 
Автор Сообщение

Jimmy Пол:Муж

15-Дек-2012 16:48


Год выпуска: 2008
Жанр: триллер, драма, криминал
Страна: США
Режиссер: Адам Бернштейн
В ролях: Брайан Кренстон, Анна Ганн, АрДжи Митт, Арон Пол, Бетси Брендт, Дин Норрис
Сюжет фильма:
Школьный учитель химии Уолтер Уайт узнаёт, что болен раком лёгких. Учитывая сложное финансовое состояние дел семьи, а также перспективы (жена Уолтера, Скайлер, беременна вторым ребёнком, а у сына ДЦП), Уолтер решает заняться изготовлением метамфетамина. Для этого он привлекает своего бывшего ученика Джесси Пинкмана, когда-то исключённого из школы при активном содействии Уайта. Пинкман сам занимался изготовлением метамфетамина, но накануне в ходе рейда УБН он лишился подельника и лаборатории…

Качество видео: WEBDLRip

Продолжительность: 00:58:08
Формат: avi
Видео: XviD, 624x352, 957 kbps
Аудио: русский, многоголосый закадровый [LostFilm], MP3 2.0, 128 kbps

Код:

General
Complete name                    : F:\Видео\Сериалы\Breaking Bad Season 1 LostFilm\Breaking.Bad.S01E01.rus.LostFilm.TV.avi
Format                           : AVI
Format/Info                      : Audio Video Interleave
File size                        : 457 MiB
Duration                         : 58mn 8s
Overall bit rate                 : 1 098 Kbps
Writing application              : Nandub v1.0rc2
Writing library                  : Nandub build 1853/release

Video
ID                               : 0
Format                           : MPEG-4 Visual
Format profile                   : Streaming Video@L1
Format settings, BVOP            : Yes
Format settings, QPel            : No
Format settings, GMC             : No warppoints
Format settings, Matrix          : Custom
Codec ID                         : XVID
Codec ID/Hint                    : XviD
Duration                         : 58mn 8s
Bit rate                         : 957 Kbps
Width                            : 624 pixels
Height                           : 352 pixels
Display aspect ratio             : 16/9
Frame rate                       : 23.976 fps
Resolution                       : 24 bits
Colorimetry                      : 4:2:0
Scan type                        : Progressive
Bits/(Pixel*Frame)               : 0.182
Stream size                      : 398 MiB (87%)
Writing library                  : XviD 1.2.1 (UTC 2008-12-04)

Audio
ID                               : 1
Format                           : MPEG Audio
Format version                   : Version 1
Format profile                   : Layer 3
Codec ID                         : 55
Codec ID/Hint                    : MP3
Duration                         : 58mn 8s
Bit rate mode                    : Constant
Bit rate                         : 128 Kbps
Channel(s)                       : 2 channels
Sampling rate                    : 48.0 KHz
Resolution                       : 16 bits
Stream size                      : 53.2 MiB (12%)
Alignment                        : Aligned on interleaves
Interleave, duration             : 24 ms (0.58 video frame)
Interleave, preload duration     : 480 ms

Релиз группы:

picpicpicpicpicpic
Для увеличения картинки щелкните мышкой по превью

Этот торрент недоступен для скачивания без регистрации, однако доступен по публичной magnet-ссылке (источники с публичных трекеров). Перед использованием ссылки прочтите, пожалуйста Пользовательское соглашение, а также как можно дольше оставайтесь на раздаче! Для того, чтобы скачать сам торрент-файл (который видит больше источников), а также для того, чтобы поблагодарить релизера, вам необходимо зарегистрироваться. Если регистрироваться лень - вы можете также попробовать скачать релиз по нашим партнерским ссылкам ниже.

[underverse.su].t22385.torrent
Трекер: Зарегистрирован   [ 15.12.2012 16:48 ]  

Статус: проверено (by Garnett at 16.12.2012 05:46)
Поблагодарили: 7 человек
Тип торрента: публичный - доступные источники с открытых трекеров: 
Размер: 3,05 GB (занимает 0,7 DVDR, для записи нужно 1 болванка DVDR/RW)
 
 
Похожие темы
Форум Тема Автор Торрент Отв. Посл. сооб.
Зарубежные сериалы Во все тяжкие / Breaking Bad / Сезон: 5 / Серии: 1-8 (16) (Адам Бернштейн, Мишель Максвелл МакЛарен) [2012 г., Криминал, драма, триллер, WEBDLRip] MVO + Original Jimmy
0 | 0

2 | 1341

59

08.10.2012 14:28

Зарубежные сериалы Во все тяжкие / Breaking Bad / Сезон 5 / Cерии 9-16 (Брайан Крэнстон) [2013 г., драма, криминал] DVO (Кубик в Кубе) + original Jimmy
0 | 0

0 | 1782

13

08.02.2014 18:22

Зарубежные сериалы [BD / Remux / BDRip / WEB-DL / HDTV 1080/720р] Во все тяжкие / Breaking Bad / Сезон 4 / Серии: 1-13 (13) (Адам Бернштейн) [2011 г., триллер, драма, криминал, HDTVRip 720p] MVO Alexsandr1029
0 | 0

1 | 864

16

29.12.2013 10:52


Яндекс.Метрика powered by Sphinx


В Н И М А Н И Е
Сайт не распространяет и не хранит электронные версии произведений, а лишь бесплатно и без коммерческой выгоды (не требуя взамен платы,
SMS и т.д.) предоставляет доступ к создаваемому пользователями каталогу ссылок на торрент-файлы, которые содержат только списки хеш-сумм.
Убедительная просьба с жалобами обращаться напрямую к пользователю, разместившему торрент файл.

Вверх