Loading...
Error

Быстрее пули / Faster (Джордж Тиллман мл.) [2010 г., боевик, триллер, драма, криминал, BDRip-AVC] Dub + Original

Статистика раздачи
Размер:  2,91 GB   |    Зарегистрирован:  3 года 11 месяцев   |    Скачан:  5 раз

Полного источника не было: 10 месяцев

Сидов:  0  |  0 KB/s  ]   Личеров:  0  |  0 KB/s  ]

* - сиды/пиры с внешних источников

   
 
Автор Сообщение

garry Пол:Муж

14-Дек-2012 19:38

Быстрее пули / Faster


Год выпуска: 2010
Жанр: боевик, триллер, драма, криминал
Страна: США
Режиссер: Джордж Тиллман мл.
В ролях: Дуэйн Джонсон, Билли Боб Торнтон, Оливер Джексон-Коэн, Карла Гуджино, Мэгги Грэйс, Мун Бладгуд, Лестер Спейт, Адевале Акинойе-Агбаже, Мэтт Джералд, Майк Эппс
Сюжет фильма:
После десяти лет, проведенных в тюрьме, у Драйвера одна цель: выследить и уничтожить людей, замешанных в жестоком убийстве его брата. Наконец-то обретя свободу, он готов пойти на все, чтобы выполнить свою жестокую миссию и разделаться с теми, кто попал в его черный список.

Испытать радость отмщения Драйверу мешают полицейский-ветеран и наемный убийца, каждый из которых имеет свою причину свести с ним счеты. Теперь охота ведется на охотника…

  • Мировая премьера: 24 ноября 2010


Качество видео: BDRip-AVC

Продолжительность: 01:37:58
Формат: MKV
Видео: x264, 1152x480, 3360 kbps
Аудио #1: русский, дублированный [лицензия], AC3 5.1, 448 kbps
Аудио #2: английский, оригинал, AC3 5.1, 448 kbps
Субтитры #1: тип: вшитые отключаемые, русский, формат: SRT
Субтитры #2: тип: вшитые отключаемые, русский, формат: SRT
Субтитры #3: тип: вшитые отключаемые, английский, формат: SRT
Субтитры #4: тип: вшитые отключаемые, испанский, формат: SRT

Код:

General
Unique ID                        : 252183688012301230695092306249729235910 (0xBDB8CFC68488F4439C5F15402AE4DBC6)
Complete name                    : I:\Faster.barm.mkv
Format                           : Matroska
File size                        : 2.91 GiB
Duration                         : 1h 37mn
Overall bit rate                 : 4 258 Kbps
Movie name                       : Faster 2010
Encoded date                     : UTC 2011-03-23 22:01:11
Writing application              : mkvmerge v4.6.0 ('Still Crazy After All These Years') built on Mar 10 2011 02:50:32
Writing library                  : libebml v1.2.0 + libmatroska v1.1.0
Cover                            : Yes

Video
ID                               : 1
Format                           : AVC
Format/Info                      : Advanced Video Codec
Format profile                   : High@L4.1
Format settings, CABAC           : Yes
Format settings, ReFrames        : 11 frames
Codec ID                         : V_MPEG4/ISO/AVC
Duration                         : 1h 37mn
Bit rate                         : 3 360 Kbps
Width                            : 1 152 pixels
Height                           : 480 pixels
Display aspect ratio             : 2.40:1
Frame rate                       : 23.976 fps
Color space                      : YUV
Chroma subsampling               : 4:2:0
Bit depth                        : 8 bits
Scan type                        : Progressive
Bits/(Pixel*Frame)               : 0.253
Stream size                      : 2.24 GiB (77%)
Title                            : Faster
Writing library                  : x264 core 114 r1900 60ef1f8
Encoding settings                : cabac=1 / ref=11 / deblock=1:-3:-2 / analyse=0x3:0x113 / me=umh / subme=10 / psy=1 / psy_rd=1.10:0.05 / mixed_ref=1 / me_range=32 /
 chroma_me=1 / trellis=2 / 8x8dct=1 / cqm=0 / deadzone=21,11 / fast_pskip=0 / chroma_qp_offset=-3 / threads=6 / sliced_threads=0 / nr=0 / decimate=1 / interlaced=0 /
 constrained_intra=0 / bframes=9 / b_pyramid=2 / b_adapt=2 / b_bias=0 / direct=3 / weightb=1 / open_gop=0 / weightp=2 / keyint=250 / keyint_min=23 / scenecut=40 /
 intra_refresh=0 / rc_lookahead=60 / rc=2pass / mbtree=1 / bitrate=3360 / ratetol=1.0 / qcomp=0.65 / qpmin=0 / qpmax=69 / qpstep=4 / cplxblur=20.0 / qblur=0.5 /
 vbv_maxrate=50000 / vbv_bufsize=62500 / nal_hrd=none / ip_ratio=1.30 / aq=2:0.90 / zones=135001,140927,q=35
Language                         : English
Matrix coefficients              : BT.709-5, BT.1361, IEC 61966-2-4 709, SMPTE RP177

Audio #1
ID                               : 2
Format                           : AC-3
Format/Info                      : Audio Coding 3
Mode extension                   : CM (complete main)
Codec ID                         : A_AC3
Duration                         : 1h 37mn
Bit rate mode                    : Constant
Bit rate                         : 448 Kbps
Channel(s)                       : 6 channels
Channel positions                : Front: L C R, Side: L R, LFE
Sampling rate                    : 48.0 KHz
Bit depth                        : 16 bits
Compression mode                 : Lossy
Stream size                      : 314 MiB (11%)
Title                            : Dubljaz, 48 kHz, AC3, 3/2 (L,C,R,l,r) + LFE ch, ~ 448.00 kbps
Language                         : Russian

Audio #2
ID                               : 3
Format                           : AC-3
Format/Info                      : Audio Coding 3
Mode extension                   : CM (complete main)
Codec ID                         : A_AC3
Duration                         : 1h 37mn
Bit rate mode                    : Constant
Bit rate                         : 448 Kbps
Channel(s)                       : 6 channels
Channel positions                : Front: L C R, Side: L R, LFE
Sampling rate                    : 48.0 KHz
Bit depth                        : 16 bits
Compression mode                 : Lossy
Stream size                      : 314 MiB (11%)
Title                            : Original, 48 kHz, AC3, 3/2 (L,C,R,l,r) + LFE ch, ~ 448.00 kbps
Language                         : English

Text #1
ID                               : 4
Format                           : UTF-8
Codec ID                         : S_TEXT/UTF8
Codec ID/Info                    : UTF-8 Plain Text
Title                            : Forced
Language                         : Russian

Text #2
ID                               : 5
Format                           : UTF-8
Codec ID                         : S_TEXT/UTF8
Codec ID/Info                    : UTF-8 Plain Text
Language                         : Russian

Text #3
ID                               : 6
Format                           : UTF-8
Codec ID                         : S_TEXT/UTF8
Codec ID/Info                    : UTF-8 Plain Text
Title                            : SDH
Language                         : English

Text #4
ID                               : 7
Format                           : UTF-8
Codec ID                         : S_TEXT/UTF8
Codec ID/Info                    : UTF-8 Plain Text
Language                         : English

Text #5
ID                               : 8
Format                           : UTF-8
Codec ID                         : S_TEXT/UTF8
Codec ID/Info                    : UTF-8 Plain Text
Language                         : Spanish

Menu
00:00:00.000                     : en:Chapter 1
00:07:51.012                     : en:Chapter 2
00:11:59.844                     : en:Chapter 3
00:20:57.089                     : en:Chapter 4
00:24:29.342                     : en:Chapter 5
00:30:38.837                     : en:Chapter 6
00:35:46.769                     : en:Chapter 7
00:43:30.566                     : en:Chapter 8
00:47:07.533                     : en:Chapter 9
00:54:53.039                     : en:Chapter 10
00:59:17.178                     : en:Chapter 11
01:07:08.566                     : en:Chapter 12
01:11:28.242                     : en:Chapter 13
01:17:09.082                     : en:Chapter 14
01:23:05.563                     : en:Chapter 15
01:28:45.361                     : en:Chapter 16
Релиз группы:

picpicpic
Для увеличения картинки щелкните мышкой по превью

Этот торрент недоступен для скачивания без регистрации, однако доступен по публичной magnet-ссылке (источники с публичных трекеров). Перед использованием ссылки прочтите, пожалуйста Пользовательское соглашение, а также как можно дольше оставайтесь на раздаче! Для того, чтобы скачать сам торрент-файл (который видит больше источников), а также для того, чтобы поблагодарить релизера, вам необходимо зарегистрироваться. Если регистрироваться лень - вы можете также попробовать скачать релиз по нашим партнерским ссылкам ниже.

[underverse.su].t22351.torrent
Трекер: Зарегистрирован   [ 14.12.2012 19:38 ]  

Статус: проверено (by garry at 14.12.2012 19:38)
Поблагодарили: пока никто не поблагодарил...
Тип торрента: публичный - доступные источники с открытых трекеров: 
Размер: 2,91 GB (занимает 2/3 DVDR, для записи нужно 1 болванка DVDR/RW)
 
 
Похожие темы
Форум Тема Автор Торрент Отв. Посл. сооб.
Зарубежное кино [DVDRip, Low-Res HDRip, и т.д.] Быстрее пули / Faster (Джордж Тиллман мл.) [2010 г., боевик, триллер, драма, криминал, BDRip] Dub garry
8 | 3

0 | 313

7

14.12.2012 19:30


Яндекс.Метрика powered by Sphinx


В Н И М А Н И Е
Сайт не распространяет и не хранит электронные версии произведений, а лишь бесплатно и без коммерческой выгоды (не требуя взамен платы,
SMS и т.д.) предоставляет доступ к создаваемому пользователями каталогу ссылок на торрент-файлы, которые содержат только списки хеш-сумм.
Убедительная просьба с жалобами обращаться напрямую к пользователю, разместившему торрент файл.

Вверх