Loading...
Error

Братство десанта / Серии: 1-16 (16) (Арменак Назикян, Виктор Татарский) [2012 г., криминал, SATRip]

Статистика раздачи
Размер:  9,99 GB   |    Зарегистрирован:  3 года 11 месяцев   |    Скачан:  10 раз

Полного источника не было: 2 года

Сидов:  0  |  0 KB/s  ]   Личеров:  0  |  0 KB/s  ]

* - сиды/пиры с внешних источников

   
 
Автор Сообщение

nemos Пол:Муж

14-Дек-2012 08:21


Год выпуска: 2012
Жанр: криминал
Страна: Россия
Режиссер: Арменак Назикян, Виктор Татарский (II)
В ролях: Сергей Горобченко, Анатолий Кот, Фархад Махмудов, Егор Пазенко, Михаил Полосухин, Максим Коновалов, Екатерина Проскурина, Алексей Осипов, Сергей Колос, Игорь Вуколов
Во время боевых действий в одной горной деревушке русские десантники вступают в бой с боевиками, все боевики были уничтожены, но один из группы десанта открывает огонь по мирным жителям обвиняя их в пособничестве боевикам. Товарищи пытались остановить сослуживца от необратимых действий, но тот не слушаю никого, продолжал расстрел, командир взвода пытаясь остановить десанта был убит им же.

Отступив отряд с мирными жителями с деревушки, начальство решает нанести авиа удар по деревне.

Артур Глебов, тот самый десантник который не подчинился приказу остался в деревне и после авиа удара был признал погибшим.

Прошли годы, ребята начали жить мирной жизнью. Кто то стал доктором, кто полицейским, кто ментом, а кто то и криминальным авторитетом.

Но вскоре в город приезжает считавшим погибшим Артур Глебов…


Качество видео: SatRip

Продолжительность: 00:49:05 серия
Формат: AVI
Видео: XviD, 704x384, 1 600kbps
Аудио: русский, MP3 2.0, 192 kbps

Код:

G:\СКАЧКИ\С underverse\Bratstvo.desanta.(ICTV_2012)\Bratstvo.desanta.(16.serija).2012.XviD.SATRip.by.simka.avi
   General
      Complete name : G:\СКАЧКИ\С underverse\Bratstvo.desanta.(ICTV_2012)\Bratstvo.desanta.(16.serija).2012.XviD.SATRip.by.simka.avi
      Format : AVI
      Format/Info : Audio Video Interleave
      File size : 633 MiB
      Duration : 49mn 5s
      Overall bit rate : 1 802 Kbps
      Writing application : VirtualDubModRus 1.5.10.2 (build 2542/release)
      Writing library : VirtualDubMod build 2542/release
   Video #0
      ID : 0
      Format : MPEG-4 Visual
      Format profile : Advanced Simple@L5
      Format settings, BVOP : 2
      Format settings, QPel : No
      Format settings, GMC : No warppoints
      Format settings, Matrix : Default (H.263)
      Muxing mode : Packed bitstream
      Codec ID : XVID
      Codec ID/Hint : XviD
      Duration : 49mn 5s
      Bit rate : 1 600 Kbps
      Width : 704 pixels
      Height : 384 pixels
      Display aspect ratio : 5:4
      Original display aspect ratio : 1.85:1
      Frame rate : 25.000 fps
      Color space : YUV
      Chroma subsampling : 4:2:0
      Bit depth : 8 bits
      Scan type : Progressive
      Compression mode : Lossy
      Bits/(Pixel*Frame) : 0.237
      Stream size : 562 MiB (89%)
      Writing library : XviD 64
   Audio #1
      ID : 1
      Format : MPEG Audio
      Format version : Version 1
      Format profile : Layer 3
      Mode : Joint stereo
      Codec ID : 55
      Codec ID/Hint : MP3
      Duration : 49mn 4s
      Bit rate mode : Constant
      Bit rate : 192 Kbps
      Channel(s) : 2 channels
      Sampling rate : 48.0 KHz
      Compression mode : Lossy
      Stream size : 67.4 MiB (11%)
      Alignment : Split accross interleaves
      Interleave, duration : 40 ms (1.00 video frame)
      Interleave, preload duration : 500 ms
Семпл: http://multi-up.com/803300

picpicpicpicpicpicpicpicpicpic
Для увеличения картинки щелкните мышкой по превью

Этот торрент недоступен для скачивания без регистрации, однако доступен по публичной magnet-ссылке (источники с публичных трекеров). Перед использованием ссылки прочтите, пожалуйста Пользовательское соглашение, а также как можно дольше оставайтесь на раздаче! Для того, чтобы скачать сам торрент-файл (который видит больше источников), а также для того, чтобы поблагодарить релизера, вам необходимо зарегистрироваться. Если регистрироваться лень - вы можете также попробовать скачать релиз по нашим партнерским ссылкам ниже.

[underverse.su].t22557.torrent
Трекер: Зарегистрирован   [ 19.12.2012 23:29 ]  

Статус: проверено (by garry at 19.12.2012 23:32)
Поблагодарили: 2 человека
Тип торрента: публичный - доступные источники с открытых трекеров: 
Размер: 9,99 GB (занимает 2,28 DVDR, для записи нужно 3 болванки DVDR/RW)
 
 


Последний раз редактировалось: nemos (06.11.2014 12:35), всего редактировалось 7 раз(а)

nemos Пол:Муж

15-Дек-2012 01:30

Торрент файл перезалит (9-10 серии добавлены)

nemos Пол:Муж

18-Дек-2012 02:30

Обновлен

nemos Пол:Муж

19-Дек-2012 23:30

Обновлен(все серии)

Яндекс.Метрика powered by Sphinx


В Н И М А Н И Е
Сайт не распространяет и не хранит электронные версии произведений, а лишь бесплатно и без коммерческой выгоды (не требуя взамен платы,
SMS и т.д.) предоставляет доступ к создаваемому пользователями каталогу ссылок на торрент-файлы, которые содержат только списки хеш-сумм.
Убедительная просьба с жалобами обращаться напрямую к пользователю, разместившему торрент файл.

Вверх