Loading...
Error

Красота по-американски / American Beauty (Сэм Мендес) [1999 г., драма, BDRip] MVO

Статистика раздачи
Размер:  2,18 GB   |    Зарегистрирован:  3 года 11 месяцев   |    Скачан:  15 раз

Полного источника не было: 1 год 1 месяц

Сидов:  0  |  0 KB/s  ]   Личеров:  0  |  0 KB/s  ]

* - сиды/пиры с внешних источников

   
 
Автор Сообщение

garry Пол:Муж

13-Дек-2012 20:16

Красота по-американски / American Beauty


Год выпуска: 1999
Жанр: драма
Страна: США
Режиссер: Сэм Мендес
В ролях: Кевин Спейси, Аннетт Бенинг, Тора Бёрч, Уэс Бентли, Мена Сувари, Крис Купер, Питер Галлахер, Эллисон Дженни, Скотт Бакула, Сэм Робардс
Сюжет фильма:
Лестер Бернэм переживает кризис среднего возраста. Его не уважают и не ценят на работе, а от счастливой семьи осталась лишь видимость. У жены Кэролайн страстный роман с коллегой по работе, а угрюмая дочь-подросток Джейн увлечена соседским парнем, побывавшим в психиатрической больнице.

Терзаемый душевными муками, Лестер впадает в глубокую депрессию. Но неожиданно для себя влюбляется в одноклассницу дочери Анджелу. Эта пылкая страсть дает Лестеру мощный жизненный импульс. Он ощущает прилив сил и желаний, и готов снова радоваться красоте.

  • Мировая премьера: 8 сентября 1999
  • Российская премьера: 22 марта 2000


Качество видео: BDRip

Продолжительность: 02:01:39
Формат: avi
Видео: XviD, 720x304, 1780 kbps
Аудио #1: русский, многоголосый закадровый [профессиональный], AC3 5.1, 384 kbps
Аудио #2: английский, оригинал, AC3 5.1, 384 kbps
Субтитры #1: тип: внешние, русский, формат: SRT
Субтитры #2: тип: внешние, английский, формат: SRT

Код:

General
Complete name                    : D:\Downloads\Torrents\Krasota.Po.Amerikanski.1999.DUAL.BDRip.XviD.AC3.-HQCLUB.avi
Format                           : AVI
Format/Info                      : Audio Video Interleave
Format profile                   : OpenDML
File size                        : 2.18 GiB
Duration                         : 2h 1mn
Overall bit rate                 : 2 567 Kbps
Movie name                       : Krasota.Po.Amerikanski.1999.DUAL.BDRip.XviD.AC3.-HQCLUB
Director                         : kingsize87
Writing application              : VirtualDubMod 1.5.10.2 (build 2542/release)
Copyright                        : http://hqclub.net/
Comment                          : 23.09.2010

Video
ID                               : 0
Format                           : MPEG-4 Visual
Format profile                   : Streaming Video@L1
Format settings, BVOP            : Yes
Format settings, QPel            : No
Format settings, GMC             : No warppoints
Format settings, Matrix          : Custom
Muxing mode                      : Packed bitstream
Codec ID                         : XVID
Codec ID/Hint                    : XviD
Duration                         : 2h 1mn
Bit rate                         : 1 781 Kbps
Width                            : 720 pixels
Height                           : 304 pixels
Display aspect ratio             : 2.35
Frame rate                       : 23.976 fps
Resolution                       : 24 bits
Colorimetry                      : 4:2:0
Scan type                        : Progressive
Bits/(Pixel*Frame)               : 0.339
Stream size                      : 1.51 GiB (69%)
Writing library                  : XviD 1.2.1 (UTC 2008-12-04)

Audio #1
ID                               : 1
Format                           : AC-3
Format/Info                      : Audio Coding 3
Codec ID                         : 2000
Duration                         : 2h 1mn
Bit rate mode                    : Constant
Bit rate                         : 384 Kbps
Channel(s)                       : 6 channels
Channel positions                : Front: L C R, Surround: L R, LFE
Sampling rate                    : 48.0 KHz
Stream size                      : 334 MiB (15%)
Alignment                        : Split accross interleaves
Interleave, duration             : 42 ms (1.00 video frame)
Interleave, preload duration     : 500 ms

Audio #2
ID                               : 2
Format                           : AC-3
Format/Info                      : Audio Coding 3
Codec ID                         : 2000
Duration                         : 2h 1mn
Bit rate mode                    : Constant
Bit rate                         : 384 Kbps
Channel(s)                       : 6 channels
Channel positions                : Front: L C R, Surround: L R, LFE
Sampling rate                    : 48.0 KHz
Stream size                      : 334 MiB (15%)
Alignment                        : Split accross interleaves
Interleave, duration             : 42 ms (1.00 video frame)
Interleave, preload duration     : 500 ms

Семпл: http://multi-up.com/803166

Релиз группы:

picpicpic
Для увеличения картинки щелкните мышкой по превью

Этот торрент недоступен для скачивания без регистрации, однако доступен по публичной magnet-ссылке (источники с публичных трекеров). Перед использованием ссылки прочтите, пожалуйста Пользовательское соглашение, а также как можно дольше оставайтесь на раздаче! Для того, чтобы скачать сам торрент-файл (который видит больше источников), а также для того, чтобы поблагодарить релизера, вам необходимо зарегистрироваться. Если регистрироваться лень - вы можете также попробовать скачать релиз по нашим партнерским ссылкам ниже.

[underverse.su].t22302.torrent
Трекер: Зарегистрирован   [ 13.12.2012 20:16 ]  

Статус: проверено (by garry at 13.12.2012 20:17)
Поблагодарили: 1 человек
Тип торрента: публичный - доступные источники с открытых трекеров: 
Размер: 2,18 GB (занимает 1/2 DVDR, для записи нужно 1 болванка DVDR/RW)
 
 
Похожие темы
Форум Тема Автор Торрент Отв. Посл. сооб.
Зарубежное кино [DVDRip, Low-Res HDRip, и т.д.] Красота по-американски / American Beauty (Сэм Мендес) [1999 г., драма, HDRip] MVO floatrx
179 | 4

5 | 1234

12

01.02.2014 15:22

Зарубежное кино [DVDRip, Low-Res HDRip, и т.д.] Красота по-американски / American Beauty (Сэм Мендес / Sam Mendes) [1999 г., Драма, HDTVRip-AVC] M-i-i-i-ke
0 | 0

0 | 676

7

26.06.2010 10:19

Зарубежное кино [DVDRip, Low-Res HDRip, и т.д.] Красота по-американски / American Beauty (Сэм Мендес) [1999 г., Драма, BDRip-AVC] 2-DVO (RUS, Премьер Мультимедиа, Universal Pictures) + 3-AVO (RUS, А. Гаврилов, С. Визгунов, В. Завгородний) +... Ведьмочка
1 | 0

0 | 500

2

11.08.2014 01:31

Зарубежное кино [HDDVDRip / BDRip / WEB-DL / HDTV 1080/720р] Красота по-американски / American Beauty (Сэм Мендес) [1999 г., Драма, BDRip 1080p] DVO (RUS, Премьер Мультимедиа) + AVO (RUS, А. Гаврилов) + Original (ENG) + Subs (RUS, ENG) Ведьмочка
3 | 0

0 | 494

1

11.08.2014 00:45

Зарубежное кино [HDDVDRip / BDRip / WEB-DL / HDTV 1080/720р] Красота по-американски / American Beauty (Сэм Мендес) [1999 г., Драма, BDRip 720p] MVO (RUS, Universal Pictures) + Subs (RUS, ENG) Ведьмочка
10 | 0

0 | 466

2

11.08.2014 00:57


Яндекс.Метрика powered by Sphinx


В Н И М А Н И Е
Сайт не распространяет и не хранит электронные версии произведений, а лишь бесплатно и без коммерческой выгоды (не требуя взамен платы,
SMS и т.д.) предоставляет доступ к создаваемому пользователями каталогу ссылок на торрент-файлы, которые содержат только списки хеш-сумм.
Убедительная просьба с жалобами обращаться напрямую к пользователю, разместившему торрент файл.

Вверх