Loading...
Error

Гусарская баллада (Эльдар Рязанов) [1962 г., мюзикл, комедия, DVDRip]

Статистика раздачи
Размер:  746 MB   |    Зарегистрирован:  3 года 11 месяцев   |    Скачан:  12 раз

Полного источника не было: 2 месяца 2 дня

Сидов:  0  |  0 KB/s  ]   Личеров:  0  |  0 KB/s  ]

* - сиды/пиры с внешних источников

   
 
Автор Сообщение

RG NewCinema 

13-Дек-2012 19:27

Гусарская баллада


Год выпуска: 1962
Жанр: мюзикл, комедия
Страна: СССР
Режиссер: Эльдар Рязанов
В ролях: Лариса Голубкина, Юрий Яковлев, Игорь Ильинский, Николай Крючков, Виктор Кольцов, Антоний Ходурский, Татьяна Шмыга, Лев Поляков, Алексей Полевой, Владимир Ширяев
Сюжет фильма:
Исторический анекдот, удачно и к месту рассказанный, всегда найдет благодарных слушателей, а, тем более, зрителей. История девицы-корнета, желающей наравне с мужчинами защищать отечество, была счастливо вспомнена драматургом А. Гладковым, воплощена им в комедии «Давным-давно» и экранизирована Э. Рязановым в 1962 — к 150-летнему юбилею победы над Наполеоном.

Все удачно сложилось в этом киноводевиле: и знакомый сюжет, изобилующий приключениями, переодеваниями, интригами, и замечательная, использующая характерные жанровые модели — романса, баллады, гусарской песни — музыка Т. Хренникова, и звездный актерский ансамбль.

  • Мировая премьера: 7 сентября 1962


Качество видео: DVDRip

Продолжительность: 01:30:17
Формат: AVI
Видео: XviD, 640x464, 1018 kbps
Аудио: русский, оригинал, MP3 2.0, 128 kbps

Код:

Общее
Полное имя : Gusarskaja.Ballada.1962.DVDRip_[Youtracker]_by_AVP Studio.avi
Формат : AVI
Формат/Информация : Audio Video Interleave
Размер файла : 746 Мбайт
Продолжительность : 1 ч. 30 м.
Общий поток : 1155 Кбит/сек
Программа кодирования : VirtualDubMod 1.5.10.3 | www.virtualdub-fr.org || (build 2550/release)
Библиотека кодирования : VirtualDubMod build 2550/release

Видео
Идентификатор : 0
Формат : MPEG-4 Visual
Профиль формата : Advanced Simple@L5
Параметр BVOP формата : 1
Параметр QPel формата : Нет
Параметр GMC формата : Без точки перехода
Параметр матрицы формата : Выборочная
Идентификатор кодека : XVID
Идентификатор кодека/Подсказка : XviD
Продолжительность : 1 ч. 30 м.
Битрейт : 1018 Кбит/сек
Ширина : 640 пикселей
Высота : 464 пикселя
Соотношение сторон : 1,379
Частота кадров : 25,000 кадров/сек
Цветовое пространство : YUV
Субдискретизация насыщенности : 4:2:0
Битовая глубина : 8 бит
Тип развёртки : Прогрессивная
Метод сжатия : С потерями
Бит/(Пиксели*Кадры) : 0.137
Размер потока : 657 Мбайт (88%)
Библиотека кодирования : XviD 65

Аудио
Идентификатор : 1
Формат : MPEG Audio
Версия формата : Version 1
Профиль формата : Layer 3
Идентификатор кодека : 55
Идентификатор кодека/Подсказка : MP3
Продолжительность : 1 ч. 30 м.
Вид битрейта : Постоянный
Битрейт : 128 Кбит/сек
Каналы : 2 канала
Частота : 48,0 КГц
Метод сжатия : С потерями
Размер потока : 82,7 Мбайт (11%)
Выравнивание : Соединение по промежуткам
Продолжительность промежутка : 40 мс. (1,00 видеокадр)
Время предзагрузки промежутка : 504 мс.
Библиотека кодирования : L3.99r
Настройки программы : -m s -V 4 -q 2 -lowpass 17 -b 128
Семпл: http://sendfile.su/724981

picpicpic
Для увеличения картинки щелкните мышкой по превью

Этот торрент недоступен для скачивания без регистрации, однако доступен по публичной magnet-ссылке (источники с публичных трекеров). Перед использованием ссылки прочтите, пожалуйста Пользовательское соглашение, а также как можно дольше оставайтесь на раздаче! Для того, чтобы скачать сам торрент-файл (который видит больше источников), а также для того, чтобы поблагодарить релизера, вам необходимо зарегистрироваться. Если регистрироваться лень - вы можете также попробовать скачать релиз по нашим партнерским ссылкам ниже.

[underverse.su].t22294.torrent
Трекер: Зарегистрирован   [ 13.12.2012 19:27 ]  

Статус: проверено (by garry at 13.12.2012 22:41)
Поблагодарили: 1 человек
Тип торрента: публичный - доступные источники с открытых трекеров: 
Размер: 746 MB (занимает 0,17 DVDR, для записи нужно 1 болванка DVDR/RW)
 
 
Похожие темы
Форум Тема Автор Торрент Отв. Посл. сооб.
Кино СССР Гусарская баллада (Эльдар Рязанов) [1962 г., мюзикл, комедия, BDRip] 90ytr90
2 | 0

0 | 2046

20

12.12.2013 04:30

Наше кино [DVD / HDDVD / BD / Remux] Гусарская баллада (Эльдар Рязанов) [1962, мюзикл, комедия, полная реставрация, Blu-ray disc 1080p] uzi2009
15 | 0

0 | 623

4

08.04.2014 06:46

Наше кино [HDDVDRip / BDRip / WEB-DL / HDTV 1080/720р] Гусарская баллада (Эльдар Рязанов) [1962 г., мюзикл, комедия, BDRip 720p] 90ytr90
0 | 1

0 | 321

6

16.04.2014 17:32


Яндекс.Метрика powered by Sphinx


В Н И М А Н И Е
Сайт не распространяет и не хранит электронные версии произведений, а лишь бесплатно и без коммерческой выгоды (не требуя взамен платы,
SMS и т.д.) предоставляет доступ к создаваемому пользователями каталогу ссылок на торрент-файлы, которые содержат только списки хеш-сумм.
Убедительная просьба с жалобами обращаться напрямую к пользователю, разместившему торрент файл.

Вверх