Loading...
Error

Кинг Конг жив / King Kong Lives (Джон Гиллермин) [1986 г., ужасы, фантастика, боевик, приключения, DVDRip] AVO [Ю. Сербин]

Статистика раздачи
Размер:  1,46 GB   |    Зарегистрирован:  3 года 11 месяцев   |    Скачан:  3 раза

Полного источника не было: 3 года 4 месяца

Сидов:  0  |  0 KB/s  ]   Личеров:  0  |  0 KB/s  ]

* - сиды/пиры с внешних источников

   
 
Автор Сообщение

RG NewCinema 

13-Дек-2012 19:04

Кинг Конг жив / King Kong Lives


Год выпуска: 1986
Жанр: ужасы, фантастика, боевик, приключения
Страна: США
Режиссер: Джон Гиллермин
В ролях: Питер Эллиотт, Джордж Ясуми, Брайан Кервин, Линда Хэмилтон, Джон Эштон, Питер Майкл Гец, Фрэнк Мэраден, Алан Сэдер, Лу Крискуоло, Марк Клемент
Сюжет фильма:
Чтобы вылечить Кинг-Конга после падения с крыши Международного Торгового Центра потребовалось хирургическое вмешательство лучших кардиологов. Никто и никогда еще не проделывал операций такого масштаба.

Как раз во время того, как огромное, механическое сердце застучало в груди царя обезьян, в далеких тропических лесах Индонезии был найден еще один Кинг-Конг! Но на этот раз это оказалась леди.

И влюбчивый Кинг-Конг не смог перед ней устоять. Призывный клич самки оживит его и пошлет вперед, на новые «подвиги», на новые разрушения и схватки с армией…

  • Мировая премьера: 19 декабря 1986

/
Качество видео: DVDRip

Продолжительность: 01:41:30
Формат: AVI
Видео: XviD, 688x288, 1874 kbps
Аудио: русский, одноголосый закадровый [Ю. Сербин], AC3 2.0, 192 kbps

Код:

Общее
Полное имя : King.Kong.zhiv.1986.A.DVDRip_[Youtracker]_by_avproh.avi
Формат : AVI
Формат/Информация : Audio Video Interleave
Размер файла : 1,46 Гбайт
Продолжительность : 1 ч. 40 м.
Общий поток : 2075 Кбит/сек
Программа кодирования : VirtualDubMod 1.5.10.3 | www.virtualdub-fr.org || (build 2550/release)
Библиотека кодирования : VirtualDubMod build 2550/release

Видео
Идентификатор : 0
Формат : MPEG-4 Visual
Профиль формата : Advanced Simple@L5
Параметр BVOP формата : 1
Параметр QPel формата : Нет
Параметр GMC формата : Без точки перехода
Параметр матрицы формата : Выборочная
Идентификатор кодека : XVID
Идентификатор кодека/Подсказка : XviD
Продолжительность : 1 ч. 40 м.
Битрейт : 1874 Кбит/сек
Ширина : 688 пикселей
Высота : 288 пикселей
Соотношение сторон : 2,40:1
Частота кадров : 25,000 кадров/сек
Цветовое пространство : YUV
Субдискретизация насыщенности : 4:2:0
Битовая глубина : 8 бит
Тип развёртки : Прогрессивная
Метод сжатия : С потерями
Бит/(Пиксели*Кадры) : 0.378
Размер потока : 1,32 Гбайт (90%)
Библиотека кодирования : XviD 65

Аудио
Идентификатор : 1
Формат : AC-3
Формат/Информация : Audio Coding 3
Расширение режима : CM (complete main)
Параметр Endianness формата : Big
Идентификатор кодека : 2000
Продолжительность : 1 ч. 40 м.
Вид битрейта : Постоянный
Битрейт : 192 Кбит/сек
Каналы : 2 канала
Расположение каналов : Front: L R
Частота : 48,0 КГц
Битовая глубина : 16 бит
Метод сжатия : С потерями
Размер потока : 138 Мбайт (9%)
Выравнивание : Разделение по промежуткам
Продолжительность промежутка : 40 мс. (1,00 видеокадр)
Время предзагрузки промежутка : 500 мс.
Семпл: http://multi-up.com/802440

picpicpic
Для увеличения картинки щелкните мышкой по превью

Этот торрент недоступен для скачивания без регистрации, однако доступен по публичной magnet-ссылке (источники с публичных трекеров). Перед использованием ссылки прочтите, пожалуйста Пользовательское соглашение, а также как можно дольше оставайтесь на раздаче! Для того, чтобы скачать сам торрент-файл (который видит больше источников), а также для того, чтобы поблагодарить релизера, вам необходимо зарегистрироваться. Если регистрироваться лень - вы можете также попробовать скачать релиз по нашим партнерским ссылкам ниже.

[underverse.su].t22289.torrent
Трекер: Зарегистрирован   [ 13.12.2012 19:04 ]  

Статус: проверено (by garry at 13.12.2012 22:37)
Поблагодарили: пока никто не поблагодарил...
Тип торрента: публичный - доступные источники с открытых трекеров: 
Размер: 1,46 GB (занимает 1/3 DVDR, для записи нужно 1 болванка DVDR/RW)
 
 
Похожие темы
Форум Тема Автор Торрент Отв. Посл. сооб.
Зарубежное кино [DVD / HDDVD / BD / Remux] Кинг Конг / King Kong (Питер Джексон / Peter Jackson) [2005 г., приключения, фантастика, BDRemux, 1080p] [Extended Cut] Dub + MVO + DVO + 2xAVO + Original eng + Sub (rus, eng) uzi2009
6 | 0

0 | 1386

7

19.02.2014 12:07


Яндекс.Метрика powered by Sphinx


В Н И М А Н И Е
Сайт не распространяет и не хранит электронные версии произведений, а лишь бесплатно и без коммерческой выгоды (не требуя взамен платы,
SMS и т.д.) предоставляет доступ к создаваемому пользователями каталогу ссылок на торрент-файлы, которые содержат только списки хеш-сумм.
Убедительная просьба с жалобами обращаться напрямую к пользователю, разместившему торрент файл.

Вверх