Loading...
Error

Молл Флэндерс / Moll Flanders (Пен Деншэм) [1996 г., драма, мелодрама, DVDRip] MVO

Статистика раздачи
Размер:  1,46 GB   |    Зарегистрирован:  3 года 11 месяцев   |    Скачан:  4 раза

Полного источника не было: 5 месяцев 20 дней

Сидов:  0  |  0 KB/s  ]   Личеров:  0  |  0 KB/s  ]

* - сиды/пиры с внешних источников

   
 
Автор Сообщение

RG NewCinema 

13-Дек-2012 18:13

Молл Флэндерс / Moll Flanders


Год выпуска: 1996
Жанр: драма, мелодрама
Страна: США
Режиссер: Пен Деншэм
В ролях: Робин Райт, Морган Фриман, Стоккард Чэннинг, Джон Линч, Бренда Фрикер, Джеральдин Джеймс, Эшлинг Коркоран, Джим Шеридан, Джереми Бретт, Бритта Смит
Сюжет фильма:
Молл Флендерс была «убийцей, потаскухой и воровкой». Историю ее удивительной жизни рассказывает ее дочери старый друг. На долю Молль выпадает нелегкое детство. Дочь вора, после смерти матери она попадает в женский монастырь. Но оскорбительное поведение священника и мятежный дух гонят ее прочь от монастырских стен — на опасные улицы Лондона.

  • Мировая премьера: 14 июня 1996

|
Качество видео: DVDRip

Продолжительность: 01:57:35
Формат: AVI
Видео: XviD, 720x320, 1381 kbps
Аудио: русский, многоголосый закадровый [профессиональный], AC3 5.1, 384 kbps

Код:

General
Complete name : /media/Moll.Flanders_DVDRip.1400.MVO_[*другой трекер*].avi
Format : AVI
Format/Info : Audio Video Interleave
File size : 1.46 GiB
Duration : 1h 57mn
Overall bit rate : 1 772 Kbps
Writing application : VirtualDubMod 1.5.4.1 (build 2178/release)
Writing library : VirtualDubMod build 2178/release

Video
ID : 0
Format : MPEG-4 Visual
Format profile : Advanced Simple@L5
Format settings, BVOP : No
Format settings, QPel : No
Format settings, GMC : No warppoints
Format settings, Matrix : Custom
Codec ID : XVID
Codec ID/Hint : XviD
Duration : 1h 57mn
Bit rate : 1 381 Kbps
Width : 720 pixels
Height : 320 pixels
Display aspect ratio : 2.25:1
Frame rate : 25.000 fps
Color space : YUV
Chroma subsampling : 4:2:0
Bit depth : 8 bits
Scan type : Progressive
Compression mode : Lossy
Bits/(Pixel*Frame) : 0.240
Stream size : 1.13 GiB (78%)
Writing library : XviD 65

Audio
ID : 1
Format : AC-3
Format/Info : Audio Coding 3
Mode extension : CM (complete main)
Format settings, Endianness : Big
Codec ID : 2000
Duration : 1h 57mn
Bit rate mode : Constant
Bit rate : 384 Kbps
Channel(s) : 6 channels
Channel positions : Front: L C R, Side: L R, LFE
Sampling rate : 48.0 KHz
Bit depth : 16 bits
Compression mode : Lossy
Stream size : 323 MiB (22%)
Alignment : Split accross interleaves
Interleave, duration : 96 ms (2.40 video frames)
Interleave, preload duration : 96 ms
Language : Russian
picpicpic
Для увеличения картинки щелкните мышкой по превью

Этот торрент недоступен для скачивания без регистрации, однако доступен по публичной magnet-ссылке (источники с публичных трекеров). Перед использованием ссылки прочтите, пожалуйста Пользовательское соглашение, а также как можно дольше оставайтесь на раздаче! Для того, чтобы скачать сам торрент-файл (который видит больше источников), а также для того, чтобы поблагодарить релизера, вам необходимо зарегистрироваться. Если регистрироваться лень - вы можете также попробовать скачать релиз по нашим партнерским ссылкам ниже.

[underverse.su].t22262.torrent
Трекер: Зарегистрирован   [ 13.12.2012 18:13 ]  

Статус: проверено (by garry at 13.12.2012 22:21)
Поблагодарили: пока никто не поблагодарил...
Тип торрента: публичный - доступные источники с открытых трекеров: 
Размер: 1,46 GB (занимает 1/3 DVDR, для записи нужно 1 болванка DVDR/RW)
 
 

Яндекс.Метрика powered by Sphinx


В Н И М А Н И Е
Сайт не распространяет и не хранит электронные версии произведений, а лишь бесплатно и без коммерческой выгоды (не требуя взамен платы,
SMS и т.д.) предоставляет доступ к создаваемому пользователями каталогу ссылок на торрент-файлы, которые содержат только списки хеш-сумм.
Убедительная просьба с жалобами обращаться напрямую к пользователю, разместившему торрент файл.

Вверх