Loading...
Error

Пираты Силиконовой Долины / Pirates of Silicon Valley (Мартин Бёрк) [1999 г., драма, биография, DVDRip] MVO

Статистика раздачи
Размер:  1,37 GB   |    Зарегистрирован:  3 года 11 месяцев   |    Скачан:  19 раз

Полного источника не было: 19 часов

Сидов:  0  |  0 KB/s  ]   Личеров:  0  |  0 KB/s  ]

* - сиды/пиры с внешних источников

   
 
Автор Сообщение

garry Пол:Муж

13-Дек-2012 01:34

Пираты Силиконовой Долины / Pirates of Silicon Valley


Год выпуска: 1999
Жанр: драма, биография
Страна: США
Режиссер: Мартин Бёрк
В ролях: Ноа Уайли, Энтони Майкл Холл, Джои Слотник, Дж.Дж. Херцлер, Уэйн Пер, Шила Шоу, Джема Зампрогна, Джон Ди Маджио, Джош Хопкинс, Гейлард Сартейн
Сюжет фильма:
История покорения мира компьютерными гениями — Биллом Гейтсом и Стивом Джобсом. Революция случилась, когда ее никто не ждал. Все началось на заре восьмидесятых, в маленьких подсобных помещениях, где двое никому не известных программистов изобретали и фантазировали.

Они мечтали о том, что когда-нибудь об их проектах, казавшихся в то время невероятными, узнает весь мир. Спустя несколько лет мечты стали реальностью. Вчерашние фантазеры превратились в миллиардеров, основав свои собственные империи, Джобс — компанию Apple, а Гейтс — Microsoft…

  • Мировая премьера: 20 июня 1999


Качество видео: DVDRip

Продолжительность: 01:36:45
Формат: avi
Видео: XviD, 720x480, 1824 kbps
Аудио: русский, многоголосый закадровый [профессиональный], MP3 2.0, 186 kbps

Код:

General
Complete name                    : D:\Downloads\Torrents\Pirates.Of.Silicon.Valley.rus.Lostfilm.TV.avi
Format                           : AVI
Format/Info                      : Audio Video Interleave
File size                        : 1.37 GiB
Duration                         : 1h 36mn
Overall bit rate                 : 2 024 Kbps
Writing application              : Nandub v1.0rc2
Writing library                  : Nandub build 1853/release

Video
ID                               : 0
Format                           : MPEG-4 Visual
Format profile                   : Simple@L3
Format settings, BVOP            : No
Format settings, QPel            : No
Format settings, GMC             : No warppoints
Format settings, Matrix          : Default (H.263)
Codec ID                         : XVID
Codec ID/Hint                    : XviD
Duration                         : 1h 36mn
Bit rate                         : 1 824 Kbps
Width                            : 720 pixels
Height                           : 480 pixels
Display aspect ratio             : 4/3
Frame rate                       : 23.976 fps
Standard                         : NTSC
Resolution                       : 24 bits
Colorimetry                      : 4:2:0
Scan type                        : Progressive
Bits/(Pixel*Frame)               : 0.220
Stream size                      : 1.23 GiB (90%)
Writing library                  : XviD 1.2.1 (UTC 2008-12-04)

Audio
ID                               : 1
Format                           : MPEG Audio
Format version                   : Version 1
Format profile                   : Layer 3
Codec ID                         : 55
Codec ID/Hint                    : MP3
Duration                         : 1h 36mn
Bit rate mode                    : Variable
Bit rate                         : 187 Kbps
Nominal bit rate                 : 192 Kbps
Channel(s)                       : 2 channels
Sampling rate                    : 48.0 KHz
Resolution                       : 16 bits
Stream size                      : 129 MiB (9%)
Alignment                        : Aligned on interleaves
Interleave, duration             : 24 ms (0.58 video frame)
Interleave, preload duration     : 489 ms
Writing library                  : LAME3.97b
Encoding settings                : -m j -V 4 -q 3 -lowpass 18.6 --abr 192

Семпл: http://sendfile.su/441809

Релиз группы:

picpicpic
Для увеличения картинки щелкните мышкой по превью

Этот торрент недоступен для скачивания без регистрации, однако доступен по публичной magnet-ссылке (источники с публичных трекеров). Перед использованием ссылки прочтите, пожалуйста Пользовательское соглашение, а также как можно дольше оставайтесь на раздаче! Для того, чтобы скачать сам торрент-файл (который видит больше источников), а также для того, чтобы поблагодарить релизера, вам необходимо зарегистрироваться. Если регистрироваться лень - вы можете также попробовать скачать релиз по нашим партнерским ссылкам ниже.

[underverse.su].t22229.torrent
Трекер: Зарегистрирован   [ 13.12.2012 01:34 ]  

Статус: проверено (by garry at 13.12.2012 01:35)
Поблагодарили: пока никто не поблагодарил...
Тип торрента: публичный - доступные источники с открытых трекеров: 
Размер: 1,37 GB (занимает 0,31 DVDR, для записи нужно 1 болванка DVDR/RW)
 
 

Яндекс.Метрика powered by Sphinx


В Н И М А Н И Е
Сайт не распространяет и не хранит электронные версии произведений, а лишь бесплатно и без коммерческой выгоды (не требуя взамен платы,
SMS и т.д.) предоставляет доступ к создаваемому пользователями каталогу ссылок на торрент-файлы, которые содержат только списки хеш-сумм.
Убедительная просьба с жалобами обращаться напрямую к пользователю, разместившему торрент файл.

Вверх