Loading...
Error

Маппеты / The Muppets (Джеймс Бобин / James Bobin) [2011, США, мюзикл, драма, комедия, семейный, BDRip] Dub + Subs Rus forced

Статистика раздачи
Размер:  1,46 GB   |    Зарегистрирован:  3 года 11 месяцев   |    Скачан:  7 раз

Полного источника не было: 5 месяцев 18 дней

Сидов:  0  |  0 KB/s  ]   Личеров:  0  |  0 KB/s  ]

* - сиды/пиры с внешних источников

   
 
Автор Сообщение

Garnett Пол:Муж

12-Дек-2012 17:11

Маппеты / The Muppets
«Они ближе, чем ты думаешь»

Страна: США
Студии: Walt Disney Pictures
Жанр: мюзикл, драма, комедия, семейный
Год выпуска: 2011
Продолжительность: 01:42:44
Перевод: Профессиональный (дублированный) лицензия
Cубтитры: русские (Forced + Forced songs) на надписи и тексты песен (отдельно)
Режиссер: Джеймс Бобин / James Bobin
В ролях: Джейсон Сигел (Gary), Эми Адамс (Mary), Крис Купер (Tex Richman), Рашида Джонс (CDE Executive), Стив Уитмир (Kermit / Beaker / Statler / Rizzo / Link Hogthrob / The Newsman, озвучка), Эрик Джейкобсон (Miss Piggy / Fozzie Bear / Animal / Sam Eagle / Marvin Suggs, озвучка), Дэйв Гольц (Gonzo / Dr. Bunsen Honeydew / Zoot / Beauregard / Waldorf / Kermit Moopet, озвучка), Билл Барретта (Swedish Chef / Rowlf / Dr. Teeth / Pepe The Prawn / Bobo / Foozie Bear / Whatnot Farmer / Muppet Gary, озвучка), Дэвид Рудман (Scooter / Janice / Miss Poogy / Wayne, озвучка), Мэтт Фогель (Sgt. Floyd Pepper / Camilla / Sweetums / 80's Robot / Lew Zealand / Uncle Deadly / Rowlf Moopet / Crazy Harry, озвучка), Питер Линц (Walter, озвучка), Алан Аркин (Tour Guide).
Описание:
Сюжет объединяет потрепанных кукол для финального шоу, которое призвано спасти киностудию от разорения.

Сэмпл: http://multi-up.com/802487
Качество видео: BDRip (Исх.: BDRemux 1080p)
Формат видео: AVI
Видео: XviD build 65, 704x400 (16:9), 23.976 fps, 1575 kbps avg, 0.233 bit/pixel
Аудио: 48 kHz, AC3 Dolby Digital, 3/2 (L,C,R,l,r) + LFE ch, 448 kbps avg (Rus Dub)
Формат субтитров: softsub (SRT)
Общее
Полное имя : D:\Mappety.2011.DUB.XviD.AC3.BDRip._by.ZNG505\Mappety.2011.DUB.XviD.AC3.BDRip._by.ZNG505_.avi
Формат : AVI
Формат/Информация : Audio Video Interleave
Размер файла : 1,46 Гбайт
Продолжительность : 1 ч. 42 м.
Общий поток : 2033 Кбит/сек
Программа кодирования : VirtualDubModRus 1.5.10.2 (build 2542/release)
Библиотека кодирования : VirtualDubMod build 2542/release
Видео
Идентификатор : 0
Формат : MPEG-4 Visual
Профиль формата : Advanced Simple@L5
Параметр BVOP формата : 2
Параметр QPel формата : Нет
Параметр GMC формата : Без точки перехода
Параметр матрицы формата : Выборочная
Идентификатор кодека : XVID
Идентификатор кодека/Подсказка : XviD
Продолжительность : 1 ч. 42 м.
Битрейт : 1575 Кбит/сек
Ширина : 704 пикселя
Высота : 400 пикселей
Соотношение сторон : 16:9
Частота кадров : 23,976 кадра/сек
Цветовое пространство : YUV
Субдискретизация насыщенности : 4:2:0
Битовая глубина : 8 бит
Тип развёртки : Прогрессивная
Метод сжатия : С потерями
Бит/(Пиксели*Кадры) : 0.233
Размер потока : 1,13 Гбайт (77%)
Библиотека кодирования : XviD 65
Аудио
Идентификатор : 1
Формат : AC-3
Формат/Информация : Audio Coding 3
Расширение режима : CM (complete main)
Идентификатор кодека : 2000
Продолжительность : 1 ч. 42 м.
Вид битрейта : Постоянный
Битрейт : 448 Кбит/сек
Каналы : 6 каналов
Расположение каналов : Front: L C R, Side: L R, LFE
Частота : 48,0 КГц
Битовая глубина : 16 бит
Метод сжатия : С потерями
Размер потока : 329 Мбайт (22%)
Выравнивание : Разделение по промежуткам
Продолжительность промежутка : 42 мс. (1,00 видеокадр)
Время предзагрузки промежутка : 500 мс.
Заголовок : Rus DUB

picpicpic

Этот торрент недоступен для скачивания без регистрации, однако доступен по публичной magnet-ссылке (источники с публичных трекеров). Перед использованием ссылки прочтите, пожалуйста Пользовательское соглашение, а также как можно дольше оставайтесь на раздаче! Для того, чтобы скачать сам торрент-файл (который видит больше источников), а также для того, чтобы поблагодарить релизера, вам необходимо зарегистрироваться. Если регистрироваться лень - вы можете также попробовать скачать релиз по нашим партнерским ссылкам ниже.

[underverse.su].t22215.torrent
Трекер: Зарегистрирован   [ 12.12.2012 17:11 ]  

Статус: проверено (by garry at 12.12.2012 18:18)
Поблагодарили: пока никто не поблагодарил...
Тип торрента: публичный - доступные источники с открытых трекеров: 
Размер: 1,46 GB (занимает 1/3 DVDR, для записи нужно 1 болванка DVDR/RW)
 
 
Похожие темы
Форум Тема Автор Торрент Отв. Посл. сооб.
Зарубежное кино [DVDRip, Low-Res HDRip, и т.д.] Маппеты / The Muppets (Джеймс Бобин) [2011 г., мюзикл, драма, комедия, семейный, HDRip] RG NewCinema
0 | 1

0 | 562

9

09.06.2012 06:09


Яндекс.Метрика powered by Sphinx


В Н И М А Н И Е
Сайт не распространяет и не хранит электронные версии произведений, а лишь бесплатно и без коммерческой выгоды (не требуя взамен платы,
SMS и т.д.) предоставляет доступ к создаваемому пользователями каталогу ссылок на торрент-файлы, которые содержат только списки хеш-сумм.
Убедительная просьба с жалобами обращаться напрямую к пользователю, разместившему торрент файл.

Вверх