Loading...
Error

Сталкер (Андрей Тарковский) [1979 г., фантастика, фэнтези, драма, детектив, приключения, DVDRip]

Статистика раздачи
Размер:  2,19 GB   |    Зарегистрирован:  3 года 11 месяцев   |    Скачан:  29 раз

Полного источника не было: 25 дней

Сидов:  0  |  0 KB/s  ]   Личеров:  0  |  0 KB/s  ]

* - сиды/пиры с внешних источников

   
 
Автор Сообщение

garry Пол:Муж

11-Дек-2012 23:07

Сталкер


Год выпуска: 1979
Жанр: фантастика, фэнтези, драма, детектив, приключения
Страна: СССР
Режиссер: Андрей Тарковский
В ролях: Александр Кайдановский, Анатолий Солоницын, Алиса Фрейндлих, Николай Гринько, Наташа Абрамова, Файме Юрно, Е. Костин, Раймо РендиВладимир Заманский,
Сюжет фильма:
В этой ленте, снятой по мотивам повести братьев Стругацких «Пикник на обочине», действие происходит в некой запретной Зоне, где, по слухам, существует комната, где исполняются самые заветные желания.

К этой комнате отправляются модный Писатель и авторитетный Профессор — каждый по своим причинам, о которых предпочитают не говорить. А ведет их туда Сталкер — проводник по Зоне — то ли юродивый, то ли апостол новой веры…

  • Мировая премьера: 17 апреля 1980


Качество видео: DVDRip

Продолжительность: 01:02:43 + 01:32:12
Формат: AVI
Видео: DivX, 704x528, 1819 kbps
Аудио: русский, оригинал, MP3 2.0, 192 kbps

Код:

General
Complete name                            : D:\Downloads\Torrents\Stalker_DVDRip\01_Stalker_DVDRip.avi
Format                                   : AVI
Format/Info                              : Audio Video Interleave
File size                                : 907 MiB
Duration                                 : 1h 2mn
Overall bit rate                         : 2 021 Kbps
Writing application                      : VirtualDubModRus 1.5.10.2 (build 2542/release)
Writing library                          : VirtualDubMod build 2542/release

Video
ID                                       : 0
Format                                   : MPEG-4 Visual
Format settings, BVOP                    : 1
Format settings, QPel                    : No
Format settings, GMC                     : No warppoints
Format settings, Matrix                  : Default (H.263)
Muxing mode                              : Packed bitstream
Codec ID                                 : DX50
Codec ID/Hint                            : DivX 5
Duration                                 : 1h 2mn
Bit rate                                 : 1 819 Kbps
Width                                    : 704 pixels
Height                                   : 528 pixels
Display aspect ratio                     : 4:3
Frame rate                               : 25.000 fps
Color space                              : YUV
Chroma subsampling                       : 4:2:0
Bit depth                                : 8 bits
Scan type                                : Progressive
Compression mode                         : Lossy
Bits/(Pixel*Frame)                       : 0.196
Stream size                              : 816 MiB (90%)
Writing library                          : DivX 6.8.3-6.8.4 (UTC 2008-06-07)

Audio
ID                                       : 1
Format                                   : MPEG Audio
Format version                           : Version 1
Format profile                           : Layer 3
Mode                                     : Joint stereo
Mode extension                           : MS Stereo
Codec ID                                 : 55
Codec ID/Hint                            : MP3
Duration                                 : 1h 2mn
Bit rate mode                            : Constant
Bit rate                                 : 192 Kbps
Channel(s)                               : 2 channels
Sampling rate                            : 48.0 KHz
Compression mode                         : Lossy
Stream size                              : 86.1 MiB (10%)
Alignment                                : Aligned on interleaves
Interleave, duration                     : 40 ms (1.00 video frame)
Interleave, preload duration             : 504 ms
Writing library                          : LAME3.97
Encoding settings                        : -m j -V 4 -q 2 -b 192
Семпл: http://multi-up.com/802339

picpicpic
Для увеличения картинки щелкните мышкой по превью

Этот торрент недоступен для скачивания без регистрации, однако доступен по публичной magnet-ссылке (источники с публичных трекеров). Перед использованием ссылки прочтите, пожалуйста Пользовательское соглашение, а также как можно дольше оставайтесь на раздаче! Для того, чтобы скачать сам торрент-файл (который видит больше источников), а также для того, чтобы поблагодарить релизера, вам необходимо зарегистрироваться. Если регистрироваться лень - вы можете также попробовать скачать релиз по нашим партнерским ссылкам ниже.

[underverse.su].t22187.torrent
Трекер: Зарегистрирован   [ 11.12.2012 23:07 ]  

Статус: проверено (by garry at 11.12.2012 23:09)
Поблагодарили: 2 человека
Тип торрента: публичный - доступные источники с открытых трекеров: 
Размер: 2,19 GB (занимает 1/2 DVDR, для записи нужно 1 болванка DVDR/RW)
 
 
Похожие темы
Форум Тема Автор Торрент Отв. Посл. сооб.
# Наше кино [DVDRip, Low-Res HDRip, и т.д.] Сталкер (Андрей Тарковский) [1979 г., фантастика, драма, DVDRip-AVC] Original + Subs 90ytr90
30 | 1

0 | 374

9

06.01.2015 20:00

sotnic 

13-Дек-2012 15:33

здравствуйте! что у вас есть из тарковского в блюрее?

добавлено спустя 57 секунд:

Есть ли Салкер в i1080?

Яндекс.Метрика powered by Sphinx


В Н И М А Н И Е
Сайт не распространяет и не хранит электронные версии произведений, а лишь бесплатно и без коммерческой выгоды (не требуя взамен платы,
SMS и т.д.) предоставляет доступ к создаваемому пользователями каталогу ссылок на торрент-файлы, которые содержат только списки хеш-сумм.
Убедительная просьба с жалобами обращаться напрямую к пользователю, разместившему торрент файл.

Вверх