Loading...
Error

Последняя искра жизни / La chispa de la vida (Алекс де ла Иглесиа) [2011, драма, DVDRip] MVO

Статистика раздачи
Размер:  694 MB   |    Зарегистрирован:  5 лет 4 месяца   |    Скачан:  4 раза

Полного источника не было: 2 года 2 месяца

Сидов:  0  |  0 KB/s  ]   Личеров:  0  |  0 KB/s  ]

* - сиды/пиры с внешних источников

   
 
Автор Сообщение

Garnett Пол:Муж

11-Дек-2012 06:07

Последняя искра жизни / La chispa de la vida

«Лучшие новости - плохие новости»
Страна: Испания, Франция, США
Жанр: драма
Год выпуска: 2011
Продолжительность: 01:34:33
Перевод: Профессиональный (многоголосый закадровый)
Cубтитры: нет
Оригинальная аудиодорожка: нет
Режиссер: Алекс де ла Иглесиа / Бlex de la Iglesia
В ролях: Сальма Хайек, Сантьяго Сегура, Начо Вигалондо, Гильермо Толедо, Каролина Банг, Антонио де ла Торре, Хавьер Боте, Бланка Портильо, Нереа Камачо, Фернандо Техеро
Описание: Безработный пиарщик Роберто пытается устроиться на работу, но его кандидатуру отвергают все агентства. Никого не интересует тот факт, что именно он придумал слоган Кока-колы «Она настоящая». Ситуация резко меняется, когда Роберто попадает в аварию и висит на волоске между жизнью и смертью. Роберто подключает свой опыт в области пиара и превращает аварию в медиа-событие. Он тут же нанимает агента и поручает ему продать эксклюзивные репортажи с места аварии на телеканалы, дабы обеспечить свою семью до конца жизни. Неужели Роберто выживет? Или поплатится жизнью ради денег?

Качество видео: DVDRip
Формат видео: AVI
Видео: 640x272 (2.35:1), 25 fps, XviD build 64 ~888 kbps avg, 0.20 bit/pixel
Аудио: Russian ( 48 kHz, MPEG Layer 3, 2 ch, ~128.00 kbps avg)
Общее
Полное имя : F:Posledniaia.iskra.jizni.2011.P.DVDRip.700MB.avi
Формат : AVI
Формат/Информация : Audio Video Interleave
Размер файла : 694 Мбайт
Продолжительность : 1 ч. 34 м.
Общий поток : 1026 Кбит/сек
Название фильма : Posledniaia.iskra.jizni.2011.P.DVDRip.700MB
Программа кодирования : VirtualDubMod 1.5.10.2 (build 2540/release)
Видео
Идентификатор : 0
Формат : MPEG-4 Visual
Профиль формата : Simple@L3
Параметр BVOP формата : Нет
Параметр QPel формата : Нет
Параметр GMC формата : Без точки перехода
Параметр матрицы формата : Default (H.263)
Идентификатор кодека : XVID
Идентификатор кодека/Подсказка : XviD
Продолжительность : 1 ч. 34 м.
Битрейт : 888 Кбит/сек
Ширина : 640 пикс.
Высота : 272 пикс.
Соотношение сторон : 2,35:1
Частота кадров : 25,000 кадр/сек
Цветовое пространство : YUV
Подвыборка цветности : 4:2:0
Битовая глубина : 8 бит
Тип развёртки : Прогрессивная
Метод сжатия : С потерями
Бит/(Пиксели*Кадры) : 0.204
Размер потока : 601 Мбайт (87%)
Библиотека кодирования : XviD 64
Аудио
Идентификатор : 1
Формат : MPEG Audio
Версия формата : Version 1
Профиль формата : Layer 3
Режим : Joint stereo
Идентификатор кодека : 55
Идентификатор кодека/Подсказка : MP3
Продолжительность : 1 ч. 34 м.
Вид битрейта : Переменный
Битрейт : 128 Кбит/сек
Каналы : 2 канала
Частота : 48,0 КГц
Метод сжатия : С потерями
Размер потока : 86,3 Мбайт (12%)
Выравнивание : Разделение по промежуткам
Продолжительность промежутка : 40 мс. (1,00 видеокадр)
Время предзагрузки промежутка : 500 ms
Библиотека кодирования : LAME3.98.2
picpicpic

Этот торрент недоступен для скачивания без регистрации, однако доступен по публичной magnet-ссылке (источники с публичных трекеров). Перед использованием ссылки прочтите, пожалуйста Пользовательское соглашение, а также как можно дольше оставайтесь на раздаче! Для того, чтобы скачать сам торрент-файл (который видит больше источников), а также для того, чтобы поблагодарить релизера, вам необходимо зарегистрироваться. Если регистрироваться лень - вы можете также попробовать скачать релиз по нашим партнерским ссылкам ниже. Кроме того, зарегистрированным пользователям не показывается всплывающая реклама при скачивании.

[underverse.su].t22166.torrent
Трекер: Зарегистрирован   [ 11.12.2012 06:07 ]  

Статус: проверено (by garry at 11.12.2012 09:39)
Поблагодарили: пока никто не поблагодарил...
Тип торрента: публичный - доступные источники с открытых трекеров: 
Размер: 694 MB (занимает 0,15 DVDR, для записи нужно 1 болванка DVDR/RW)
 
 
Похожие темы
Форум Тема Автор Торрент Отв. Посл. сооб.
Зарубежное кино [DVDRip, Low-Res HDRip, и т.д.] Последняя любовь на Земле / Perfect Sense (Дэвид МакКензи) [2011 г., фантастика, драма, мелодрама, HDRip] MVO RG NewCinema
15 | 0

0 | 1519

43

13.11.2012 18:15

Зарубежное кино [DVDRip, Low-Res HDRip, и т.д.] Последняя любовь на Земле / Perfect Sense (Дэвид МакКензи) [2011 г., фантастика, драма, мелодрама , BDRip-AVC] MVO Чертёнок
1 | 0

0 | 1634

28

02.02.2013 21:41

Зарубежное кино [DVDRip, Low-Res HDRip, и т.д.] Последняя любовь мистера Моргана / Mr. Morgan's Last Love (Сандра Неттельбек) [2013 г., драма, комедия, HDRip] DVO (CasStudio) 90ytr90
1 | 0

1 | 2281

37

22.12.2013 02:15

Зарубежное кино [DVDRip, Low-Res HDRip, и т.д.] Последняя остановка / Don't Blink / Last Stop (Трэвис Оутс) [2014 г., ужасы, фантастика, WEB-DLRip] DVO [DeadSno & den904] Паукан
0 | 0

0 | 947

23

21.01.2015 10:41

Зарубежное кино [DVDRip, Low-Res HDRip, и т.д.] Последняя битва / Ardennes Fury (Джозеф Дж. Лосон) [2014 г., военный, драма, боевик, HDRip] VO [Павел Морозов aka PashaUp] Паукан
6 | 0

0 | 705

18

07.04.2015 13:26

Зарубежное кино [DVDRip, Low-Res HDRip, и т.д.] Последняя минута / Akkilahto (Тийна Люми / Tiina Lymi) [2016 г., драма, BDRip] AVO (Карповский) 90ytr90
1 | 0

0 | 402

1

06.09.2016 14:47

Зарубежное кино [DVDRip, Low-Res HDRip, и т.д.] Последняя девушка / Final Girl (Тайлер Шилдс) [2015 г., триллер, боевик, драма, HDRip] VO + Original makkol
10 | 0

0 | 583

29

11.07.2015 11:33

Зарубежное кино [DVDRip, Low-Res HDRip, и т.д.] Последняя девушка / Final Girl (Тайлер Шилдс) [2015 г., боевик, триллер, драма, BDRip] DVO makkol
2 | 0

0 | 794

45

23.09.2015 23:01

Зарубежное кино [DVDRip, Low-Res HDRip, и т.д.] Последняя смена / Last Shift (Энтони ДиБлази) [2014 г., ужасы, триллер, HDRip] VO makkol
14 | 0

0 | 465

25

30.09.2015 14:18

Зарубежное кино [DVDRip, Low-Res HDRip, и т.д.] Последняя девушка / Last Girl Standing (Бенджамин Р. Муди) [2015 г., ужасы, драма, WEB-DLRip] DVO + Original makkol
2 | 1

1 | 1429

14

11.04.2016 22:17

Gerix Пол:Муж

12-Дек-2012 18:06

Сюжет довольно замороченный.
Интересно как на самом деле?

31-Янв-2018 14:12

Топик был перенесен из форума Зарубежное кино [DVDRip, Low-Res HDRip, и т.д.] в форум Архив (художественные фильмы)


[cron robot]
 

Яндекс.Метрика powered by Sphinx


В Н И М А Н И Е
Сайт не распространяет и не хранит электронные версии произведений, а лишь бесплатно и без коммерческой выгоды (не требуя взамен платы,
SMS и т.д.) предоставляет доступ к создаваемому пользователями каталогу ссылок на торрент-файлы, которые содержат только списки хеш-сумм.
Убедительная просьба с жалобами обращаться напрямую к пользователю, разместившему торрент файл.

Вверх