Loading...
Error

Порочная страсть / Arbitrage (Николас Джареки) [2012, триллер, драма, HDRip] Dub

Статистика раздачи
Размер:  1,45 GB   |    Зарегистрирован:  3 года 11 месяцев   |    Скачан:  7 раз

Полного источника не было: 8 месяцев

Сидов:  0  |  0 KB/s  ]   Личеров:  0  |  0 KB/s  ]

* - сиды/пиры с внешних источников

   
 
Автор Сообщение

Garnett Пол:Муж

11-Дек-2012 06:01

Порочная страсть / Arbitrage
Страна: США
Жанр: триллер, драма
Год выпуска: 2012
Продолжительность: 01:46:41
Перевод: Профессиональный (дублированный) [Лицензия]
Cубтитры: нет
Оригинальная аудиодорожка: нет
Режиссер: Николас Джареки / Nicholas Jarecki
В ролях: Ричард Гир, Сьюзен Сарандон, Тим Рот, Брит Марлинг, Летиция Каста, Нэйт Паркер, Стюарт Марголин, Крис Айгеман, Грейдон Картер, Брюс Олтмен
Описание: Роберт Миллер — харизматичный аферист и гениальный любовник. Он привык к тому, что в постелях его всегда ждут жена и любовница, которые, правда, попеременно закатывают ему скандалы, а огромные деньги делаются просто из воздуха. Но дутый бизнес не может держаться долго. Почуяв провал, он стремится поскорее продать свой хедж-фонд крупному банку, прежде чем раскроются его махинации. Непредвиденные события и нелепые ошибки толкают его на отчаянный шаг…
Сэмпл: http://www.sendspace.com/file/257e15
Качество видео: HDRip
Формат видео: AVI
Видео: 720x400 (1.80:1), 23.976 fps, XviD MPEG-4 ~1493 kbps avg, 0.22 bit/pixel
Аудио: 48 kHz, AC3 Dolby Digital, 3/2 (L,C,R,l,r) + LFE ch, ~448 kbps
General
Complete name : C:\OGO2222\Downloads\!Porochnaja.strast.2012.D.HDRip.1.46.GB.avi
Format : AVI
Format/Info : Audio Video Interleave
File size : 1.45 GiB
Duration : 1h 46mn
Overal bit rate : 1951 Kbps
Writing application : VirtualDubMod 1.5.10.2 (build 2540/release)
Writing library : VirtualDubMod build 2540/release
Video
Format : MPEG-4 Visual
Format profile : Streaming Video@L1
Format settings, BVOP : Yes
Format settings, QPel : No
Format settings, GMC : No warppoints
Format settings, Matrix : Custom
Codec ID : XVID
Codec ID/Hint : XviD
Duration : 1h 46mn
Bit rate : 1493 Kbps
Width : 720 pixels
Height : 400 pixels
Display aspect ratio : 16/9
Frame rate : 23.976 fps
Resolution : 8 bits
Colorimetry : 4:2:0
Scan type : Progressive
Bits/(Pixel*Frame) : 0.216
Stream size : 1.11 GiB
Writing library : XviD 64
Audio
Format : AC-3
Format/Info : Audio Coding 3
Codec ID : 2000
Duration : 1h 46mn
Bit rate mode : Constant
Bit rate : 448 Kbps
Channel(s) : 6 channels
Channel positions : Front: L C R, Rear: L R, LFE
Sampling rate : 48.0 KHz
Stream size : 342 MiB
picpicpic

Этот торрент недоступен для скачивания без регистрации, однако доступен по публичной magnet-ссылке (источники с публичных трекеров). Перед использованием ссылки прочтите, пожалуйста Пользовательское соглашение, а также как можно дольше оставайтесь на раздаче! Для того, чтобы скачать сам торрент-файл (который видит больше источников), а также для того, чтобы поблагодарить релизера, вам необходимо зарегистрироваться. Если регистрироваться лень - вы можете также попробовать скачать релиз по нашим партнерским ссылкам ниже.

[underverse.su].t22165.torrent
Трекер: Зарегистрирован   [ 11.12.2012 06:01 ]  

Статус: проверено (by garry at 11.12.2012 09:37)
Поблагодарили: пока никто не поблагодарил...
Тип торрента: публичный - доступные источники с открытых трекеров: 
Размер: 1,45 GB (занимает 1/3 DVDR, для записи нужно 1 болванка DVDR/RW)
 
 
Похожие темы
Форум Тема Автор Торрент Отв. Посл. сооб.
# Зарубежное кино [DVDRip, Low-Res HDRip, и т.д.] Порочная страсть / Arbitrage (Николас Джареки) [2012 г., триллер, драма, HDRip-AVC] VO + Original Garnett
0 | 0

1 | 637

22

10.10.2012 22:37

Зарубежное кино [DVDRip, Low-Res HDRip, и т.д.] Порочная страсть / Arbitrage (Николас Джареки) [2012 г., Триллер, драма,, HDRip] Dub 90ytr90
2 | 0

0 | 349

4

06.12.2012 20:39

Зарубежное кино [DVDRip, Low-Res HDRip, и т.д.] Порочная страсть / Arbitrage (Николас Джареки) [2012 г., Триллер, драма, BDRip] Dub + Original 90ytr90
0 | 0

0 | 711

4

10.12.2012 15:06

Зарубежное кино [DVDRip, Low-Res HDRip, и т.д.] Порочная страсть / Arbitrage (Николас Джареки / Nicholas Jarecki) [2012, триллер, драма, BDRip-AVC] Dub, Original (Eng) + Sub (Rus, Eng) Garnett
12 | 0

0 | 437

6

08.01.2013 11:56

Зарубежное кино [DVDRip, Low-Res HDRip, и т.д.] Порочная страсть / Arbitrage (Николас Джареки / Nicholas Jarecki) [2012, триллер, драма, BDRip-AVC] Dub + Sub (Rus, Eng) Garnett
43 | 0

0 | 531

9

08.01.2013 11:58

* Зарубежное кино [DVD / HDDVD / BD / Remux] Порочная страсть / Arbitrage (Николас Джареки) [2012 г., триллер, драма, DVD9] R5 90ytr90

0 | 479

06.12.2012 20:06

Зарубежное кино [HDDVDRip / BDRip / WEB-DL / HDTV 1080/720р] Порочная страсть / Arbitrage (Николас Джареки) [2012 г., Триллер, драма, BDRip 720p] Dub + Original 90ytr90
0 | 0

0 | 595

10

12.12.2012 20:07


Яндекс.Метрика powered by Sphinx


В Н И М А Н И Е
Сайт не распространяет и не хранит электронные версии произведений, а лишь бесплатно и без коммерческой выгоды (не требуя взамен платы,
SMS и т.д.) предоставляет доступ к создаваемому пользователями каталогу ссылок на торрент-файлы, которые содержат только списки хеш-сумм.
Убедительная просьба с жалобами обращаться напрямую к пользователю, разместившему торрент файл.

Вверх