Loading...
Error

Хитмэн / Hitman [Unrated] (Ксавьер Генс) [2007 г., боевик, триллер, драма, криминал, BDRip-AVC] Dub + Original + MVO + AVO + VO

Статистика раздачи
Размер:  3,8 GB   |    Зарегистрирован:  3 года 11 месяцев   |    Скачан:  17 раз

Полного источника не было: 2 месяца 5 дней

Сидов:  0  |  0 KB/s  ]   Личеров:  0  |  0 KB/s  ]

* - сиды/пиры с внешних источников

   
 
Автор Сообщение

garry Пол:Муж

10-Дек-2012 23:40

Хитмэн / Hitman [Unrated]


Год выпуска: 2007
Жанр: боевик, триллер, драма, криминал
Страна: Франция , США
Режиссер: Ксавьер Генс
В ролях: Тимоти Олифант, Дюгрэй Скотт, Ольга Куриленко, Роберт Неппер, Ульрих Томсен, Генри Йен Кьюсик, Михаэль Оффей, Кристиан Эриксон, Эрик Эбони, Джо Шеридан
Сюжет фильма:
Хитмэн был обучен, как высоко профессиональный убийца, чье самое мощное оружие — это хладнокровие и безмерная гордость за свою работу. 47 — это две последние цифры на штрихкоде, вытатуированном на его затылке, а также его единственное имя.

Но охотник становится добычей, когда 47-й оказывается втянутым в политические интриги. Интерпол и русские военные начинают охоту на киллера по всей восточной Европе, в то время как он сам пытается понять, кто его подставил и почему они пытаются вывести его из игры. Но самую большую угрозу для 47-го представляет волнение его совести и незнакомые эмоции, пробудившиеся в нем после встречи с прекрасной девушкой…

  • Мировая премьера: 21 ноября 2007
  • Российская премьера: 29 ноября 2007, «Фокс/Гемини»


Качество видео: BDRip-AVC

Продолжительность: 01:34:14
Формат: MKV
Видео: x264, 1184x508, 3526 kbps
Аудио #1: русский, дублированный [лицензия], AC3 5.1, 448 kbps
Аудио #2: английский, оригинал, AC3 5.1, 448 kbps
Аудио #3: русский, многоголосый закадровый [профессиональный, Киномания], AC3 5.1, 448 kbps (отдельно)
Аудио #4: русский, одноголосый закадровый [авторский, Немахов], AC3 5.1, 448 kbps (отдельно)
Аудио #5: русский, одноголосый закадровый [любительский, danis92], AC3 5.1, 448 kbps (отдельно)
Субтитры #1: тип: вшитые отключаемые, русский, формат: SRT
Субтитры #2: тип: вшитые отключаемые, русский, формат: SRT
Субтитры #3: тип: вшитые отключаемые, русский, формат: SRT
Субтитры #4: тип: вшитые отключаемые, украинский, формат: SRT
Субтитры #5: тип: вшитые отключаемые, английский, формат: SRT
Субтитры #6: тип: вшитые отключаемые, английский, формат: SRT

Код:

Complete name                            : Hitman 2007 x264 BDRip-AVC AC3 (Rus, Eng) Sub Gambit.mkv
 Format                                   : Matroska
 Format version                           : Version 2
 File size                                : 2.91 GiB
 Duration                                 : 1h 34mn
 Overall bit rate                         : 4 424 Kbps
 Encoded date                             : UTC 2012-12-08 14:32:57
 Writing application                      : mkvmerge v5.6.0 ('Kenya Kane') built on May 27 2012 16:44:04
 Writing library                          : libebml v1.2.3 + libmatroska v1.3.0

Video
 ID                                       : 1
 Format                                   : AVC
 Format/Info                              : Advanced Video Codec
 Format profile                           : High@L4.0
 Format settings, CABAC                   : Yes
 Format settings, ReFrames                : 12 frames
 Codec ID                                 : V_MPEG4/ISO/AVC
 Duration                                 : 1h 34mn
 Bit rate                                 : 3 526 Kbps
 Width                                    : 1 184 pixels
 Height                                   : 508 pixels
 Display aspect ratio                     : 2.35:1
 Frame rate                               : 23.976 fps
 Color space                              : YUV
 Chroma subsampling                       : 4:2:0
 Bit depth                                : 8 bits
 Scan type                                : Progressive
 Bits/(Pixel*Frame)                       : 0.245
 Stream size                              : 2.26 GiB (78%)
 Title                                    : Hitman 2007 x264 BDRip-AVC AC3 (Rus, Eng) Sub Gambit
 Writing library                          : x264 core 128 r2216kMod 198a7ea
 Encoding settings                        : cabac=1 / ref=12 / deblock=1:-3:-2 / analyse=0x3:0x133 / me=umh / subme=11 / psy=1 / fade_compensate=0.00 / psy_rd=1.07:0.02 / mixed_ref=1 / me_range=40 / chroma_me=1 / trellis=2 / 8x8dct=1 / cqm=0 / deadzone=21,11 / fast_pskip=0 / chroma_qp_offset=-3 / threads=6 / lookahead_threads=1 / sliced_threads=0 / nr=0 / decimate=0 / interlaced=0 / bluray_compat=0 / constrained_intra=0 / bframes=11 / b_pyramid=2 / b_adapt=2 / b_bias=0 / direct=3 / weightb=1 / open_gop=0 / weightp=2 / keyint=250 / keyint_min=23 / scenecut=40 / intra_refresh=0 / rc=2pass / mbtree=0 / bitrate=3526 / ratetol=1.0 / qcomp=0.65 / qpmin=0 / qpmax=69 / qpstep=4 / cplxblur=20.0 / qblur=0.5 / ip_ratio=1.25 / pb_ratio=1.35 / aq=3:0.80 / zones=130033,135577,q=35
 Language                                 : English
 Default                                  : Yes
 Forced                                   : No
 Matrix coefficients                      : BT.709-5, BT.1361, IEC 61966-2-4 709, SMPTE RP177

Audio #1
 ID                                       : 2
 Format                                   : AC-3
 Format/Info                              : Audio Coding 3
 Mode extension                           : CM (complete main)
 Codec ID                                 : A_AC3
 Duration                                 : 1h 34mn
 Bit rate mode                            : Constant
 Bit rate                                 : 448 Kbps
 Channel(s)                               : 6 channels
 Channel positions                        : Front: L C R, Side: L R, LFE
 Sampling rate                            : 48.0 KHz
 Bit depth                                : 16 bits
 Compression mode                         : Lossy
 Stream size                              : 302 MiB (10%)
 Title                                    : Russian, 48 kHz, AC3 Audio, 5.1, ~ 448 kbps
 Language                                 : Russian
 Default                                  : Yes
 Forced                                   : No

Audio #2
 ID                                       : 3
 Format                                   : AC-3
 Format/Info                              : Audio Coding 3
 Mode extension                           : CM (complete main)
 Codec ID                                 : A_AC3
 Duration                                 : 1h 34mn
 Bit rate mode                            : Constant
 Bit rate                                 : 448 Kbps
 Channel(s)                               : 6 channels
 Channel positions                        : Front: L C R, Side: L R, LFE
 Sampling rate                            : 48.0 KHz
 Bit depth                                : 16 bits
 Compression mode                         : Lossy
 Stream size                              : 302 MiB (10%)
 Title                                    : English, 48 kHz, AC3 Audio, 5.1, ~ 448 kbps
 Language                                 : English
 Default                                  : No
 Forced                                   : No

Text #1
 ID                                       : 4
 Format                                   : UTF-8
 Codec ID                                 : S_TEXT/UTF8
 Codec ID/Info                            : UTF-8 Plain Text
 Title                                    : Russia (Forced)
 Language                                 : Russian
 Default                                  : Yes
 Forced                                   : No

Text #2
 ID                                       : 5
 Format                                   : UTF-8
 Codec ID                                 : S_TEXT/UTF8
 Codec ID/Info                            : UTF-8 Plain Text
 Title                                    : Russia (Full R5)
 Language                                 : Russian
 Default                                  : No
 Forced                                   : No

Text #3
 ID                                       : 6
 Format                                   : UTF-8
 Codec ID                                 : S_TEXT/UTF8
 Codec ID/Info                            : UTF-8 Plain Text
 Title                                    : Russia (danis92)
 Language                                 : Russian
 Default                                  : No
 Forced                                   : No

Text #4
 ID                                       : 7
 Format                                   : UTF-8
 Codec ID                                 : S_TEXT/UTF8
 Codec ID/Info                            : UTF-8 Plain Text
 Title                                    : Ukrainian
 Language                                 : Ukrainian
 Default                                  : No
 Forced                                   : No

Text #5
 ID                                       : 8
 Format                                   : UTF-8
 Codec ID                                 : S_TEXT/UTF8
 Codec ID/Info                            : UTF-8 Plain Text
 Title                                    : English (Forced)
 Language                                 : English
 Default                                  : No
 Forced                                   : No

Text #6
 ID                                       : 9
 Format                                   : UTF-8
 Codec ID                                 : S_TEXT/UTF8
 Codec ID/Info                            : UTF-8 Plain Text
 Title                                    : English (Full)
 Language                                 : English
 Default                                  : No
 Forced                                   : No

Menu
 00:00:00.000                             : en:Main Titles
 00:05:00.000                             : en:One Question
 00:10:00.000                             : en:The Very Best
 00:15:00.000                             : en:Going Public
 00:20:00.000                             : en:Eyewitness
 00:25:00.000                             : en:Storming the Hotel
 00:30:00.000                             : en:My Boy Doesn't Miss
 00:35:00.000                             : en:As Good As Dead
 00:40:00.000                             : en:The Train Station
 00:45:00.000                             : en:Dying with Dignity
 00:50:00.000                             : en:No More Interference
 00:55:00.000                             : en:A Royal Mess
 01:00:00.000                             : en:Thrown to the Wolves
 01:05:00.000                             : en:Istanbul
 01:10:00.000                             : en:Dinner at Eight
 01:15:00.000                             : en:Mr. Price
 01:20:00.000                             : en:Road Trip
 01:25:00.000                             : en:The Key
 01:30:00.000                             : en:Bait
Семпл: [url=http://narod.ru/disk/64357792001.da3c2fcd99e8459330f8677b872517db/Hitman%202007%20x264%20BDRip-AVC%20AC3%20(Rus%2C%20Eng)%20Sub%20Gambit%20Sempl.mkv.html]narod.ru[/url]

Релиз группы:

picpicpic
Для увеличения картинки щелкните мышкой по превью

Этот торрент недоступен для скачивания без регистрации, однако доступен по публичной magnet-ссылке (источники с публичных трекеров). Перед использованием ссылки прочтите, пожалуйста Пользовательское соглашение, а также как можно дольше оставайтесь на раздаче! Для того, чтобы скачать сам торрент-файл (который видит больше источников), а также для того, чтобы поблагодарить релизера, вам необходимо зарегистрироваться. Если регистрироваться лень - вы можете также попробовать скачать релиз по нашим партнерским ссылкам ниже.

[underverse.su].t22162.torrent
Трекер: Зарегистрирован   [ 10.12.2012 23:40 ]  

Статус: проверено (by garry at 10.12.2012 23:41)
Поблагодарили: пока никто не поблагодарил...
Тип торрента: публичный - доступные источники с открытых трекеров: 
Размер: 3,8 GB (занимает 0,87 DVDR, для записи нужно 1 болванка DVDR/RW)
 
 
Похожие темы
Форум Тема Автор Торрент Отв. Посл. сооб.
Зарубежное кино [DVDRip, Low-Res HDRip, и т.д.] Хитмэн / Hitman (Ксавьер Генс) [2007 г., боевик, триллер, драма, криминал, BDRip] Dub + Original garry
10 | 5

0 | 288

12

20.12.2012 22:56


Яндекс.Метрика powered by Sphinx


В Н И М А Н И Е
Сайт не распространяет и не хранит электронные версии произведений, а лишь бесплатно и без коммерческой выгоды (не требуя взамен платы,
SMS и т.д.) предоставляет доступ к создаваемому пользователями каталогу ссылок на торрент-файлы, которые содержат только списки хеш-сумм.
Убедительная просьба с жалобами обращаться напрямую к пользователю, разместившему торрент файл.

Вверх