Loading...
Error

Постовой на перекрестке / The Crossing Guard (Шон Пенн) [1995 г., драма, BDRip-AVC] MVO + Original

Статистика раздачи
Размер:  3,26 GB   |    Зарегистрирован:  3 года 11 месяцев   |    Скачан:  4 раза

Полного источника не было: 2 года 2 месяца

Сидов:  0  |  0 KB/s  ]   Личеров:  0  |  0 KB/s  ]

* - сиды/пиры с внешних источников

   
 
Автор Сообщение

garry Пол:Муж

10-Дек-2012 23:31

Постовой на перекрестке / The Crossing Guard


Год выпуска: 1995
Жанр: драма
Страна: США
Режиссер: Шон Пенн
В ролях: Джек Николсон, Дэвид Морс, Анжелика Хьюстон, Джон Сэвидж, Робин Райт, Пайпер Лори, Ричард Брэдфорд, Присцилла Барнс, Дэвид Баэруолд, Робби Робертсон
Сюжет фильма:
Безутешный отец несколько лет ждал, когда освободится из заключения халатный водитель, который сбил насмерть его дочь. Одержимый идеей мщения, он превратился в одиночку, прожигающего свою жизнь. Встреча с заклятым врагом вновь переворачивает его мир…

  • Мировая премьера: 10 сентября 1995


Качество видео: BDRip-AVC

Продолжительность: 01:51:00
Формат: MKV
Видео: x264, 1020x552, 3370 kbps
Аудио #1: русский, многоголосый закадровый [профессиональный], AC3 5.1, 384 kbps
Аудио #2: английский, оригинал, AC3 5.1, 448 kbps
Субтитры #1: тип: вшитые отключаемые, русский, формат: SRT
Субтитры #2: тип: вшитые отключаемые, английский, формат: SRT

Код:

General
 Complete name : E:\...\The.Crossing.Guard.1995.BDRip.x264.DD5.1.Rus.Eng-E76.mkv
 Format : Matroska
 Format version : Version 2
 File size : 3.26 GiB
 Duration : 1h 51mn
 Overall bit rate : 4 199 Kbps
 Movie name : The.Crossing.Guard.1995.BDRip.x264.DD5.1.Rus.Eng-E76
 Encoded date : UTC 2012-11-29 08:19:43
 Writing application : mkvmerge v5.6.0 ('Kenya Kane') built on May 27 2012 16:44:04
 Writing library : libebml v1.2.3 + libmatroska v1.3.0

Video
 ID : 1
 Format : AVC
 Format/Info : Advanced Video Codec
 Format profile : High@L4.1
 Format settings, CABAC : Yes
 Format settings, ReFrames : 12 frames
 Codec ID : V_MPEG4/ISO/AVC
 Duration : 1h 51mn
 Bit rate : 3 283 Kbps
 Width : 1 020 pixels
 Height : 552 pixels
 Display aspect ratio : 1.85:1
 Frame rate mode : Constant
 Frame rate : 23.976 fps
 Color space : YUV
 Chroma subsampling : 4:2:0
 Bit depth : 8 bits
 Scan type : Progressive
 Bits/(Pixel*Frame) : 0.243
 Stream size : 2.55 GiB (78%)
 Title : Encode by Enclave76
 Writing library : x264 core 122 r2184kMod 5c85e0a
 Encoding settings : cabac=1 / ref=12 / deblock=1:-3:-3 / analyse=0x3:0x113 / me=umh / subme=11 / psy=1 / fade_compensate=0.00 / psy_rd=1.00:0.00 / mixed_ref=1 / me_range=64 / chroma_me=1 / trellis=2 / 8x8dct=1 / cqm=0 / deadzone=21,11 / fast_pskip=1 / chroma_qp_offset=-2 / threads=6 / sliced_threads=0 / nr=0 / decimate=1 / interlaced=0 / bluray_compat=0 / constrained_intra=0 / bframes=12 / b_pyramid=2 / b_adapt=2 / b_bias=0 / direct=1 / weightb=1 / open_gop=0 / weightp=2 / keyint=240 / keyint_min=23 / scenecut=40 / intra_refresh=0 / rc_lookahead=40 / rc=crf / mbtree=0 / crf=19.5000 / qcomp=0.70 / qpmin=0 / qpmax=69 / qpstep=4 / vbv_maxrate=50000 / vbv_bufsize=62500 / crf_max=0.0 / nal_hrd=none / ip_ratio=1.40 / pb_ratio=1.15 / aq=3:1.00 / zones=153673,159868,q=35
 Language : English
 Default : No
 Forced : No
 Matrix coefficients : BT.709

Audio #1
 ID : 2
 Format : AC-3
 Format/Info : Audio Coding 3
 Mode extension : CM (complete main)
 Format settings, Endianness : Big
 Codec ID : A_AC3
 Duration : 1h 51mn
 Bit rate mode : Constant
 Bit rate : 384 Kbps
 Channel(s) : 6 channels
 Channel positions : Front: L C R, Side: L R, LFE
 Sampling rate : 48.0 KHz
 Bit depth : 16 bits
 Compression mode : Lossy
 Stream size : 305 MiB (9%)
 Title : MVO West
 Language : Russian
 Default : Yes
 Forced : No

Audio #2
 ID : 3
 Format : AC-3
 Format/Info : Audio Coding 3
 Mode extension : CM (complete main)
 Format settings, Endianness : Big
 Codec ID : A_AC3
 Duration : 1h 51mn
 Bit rate mode : Constant
 Bit rate : 448 Kbps
 Channel(s) : 6 channels
 Channel positions : Front: L C R, Side: L R, LFE
 Sampling rate : 48.0 KHz
 Bit depth : 16 bits
 Compression mode : Lossy
 Stream size : 356 MiB (11%)
 Title : Original
 Language : English
 Default : No
 Forced : No

Text #1
 ID : 4
 Format : UTF-8
 Codec ID : S_TEXT/UTF8
 Codec ID/Info : UTF-8 Plain Text
 Language : Russian
 Default : No
 Forced : No

Text #2
 ID : 5
 Format : UTF-8
 Codec ID : S_TEXT/UTF8
 Codec ID/Info : UTF-8 Plain Text
 Language : English
 Default : No
 Forced : No

Menu
 00:00:00.000 : en:Program Start
 00:00:18.852 : en:"I Miss Me..."
 00:05:54.062 : en:Opening Credits
 00:08:47.276 : en:Four Short Blocks
 00:09:58.347 : en:Two Prisoners
 00:12:00.010 : en:A Bridge Home
 00:14:09.056 : en:Pride and Relief
 00:23:20.649 : en:A Sound in Your Head
 00:26:59.618 : en:The Empty Chamber
 00:32:00.251 : en:Perfect 7
 00:37:07.391 : en:Boys and Girls
 00:42:21.956 : en:Prints and Painting
 00:44:53.148 : en:Love and Penance
 00:48:27.279 : en:Flowers for Emily
 00:51:38.095 : en:Tender Mercies
 00:55:12.183 : en:Freddy in Dreamland
 00:56:21.377 : en:At First Sight
 01:02:44.594 : en:Morning of the Third Day
 01:05:41.270 : en:Practice
 01:06:54.927 : en:A Dance for John
 01:10:09.747 : en:A Dance fro Freddy
 01:13:30.614 : en:Breakdown
 01:19:41.193 : en:The Diner
 01:25:06.434 : en:Come On!
 01:28:49.407 : en:Run for Your Life
 01:31:05.626 : en:Like a Magnet Drawn
 01:34:47.181 : en:The Chase
 01:38:59.600 : en:Crossing the Line
 01:40:12.381 : en:A Child's Garden of Remorse
 01:46:52.364 : en:End Credits
Семпл: http://multi-up.com/800543

Релиз группы:

picpicpic
Для увеличения картинки щелкните мышкой по превью

Этот торрент недоступен для скачивания без регистрации, однако доступен по публичной magnet-ссылке (источники с публичных трекеров). Перед использованием ссылки прочтите, пожалуйста Пользовательское соглашение, а также как можно дольше оставайтесь на раздаче! Для того, чтобы скачать сам торрент-файл (который видит больше источников), а также для того, чтобы поблагодарить релизера, вам необходимо зарегистрироваться. Если регистрироваться лень - вы можете также попробовать скачать релиз по нашим партнерским ссылкам ниже.

[underverse.su].t22161.torrent
Трекер: Зарегистрирован   [ 10.12.2012 23:31 ]  

Статус: проверено (by garry at 10.12.2012 23:31)
Поблагодарили: пока никто не поблагодарил...
Тип торрента: публичный - доступные источники с открытых трекеров: 
Размер: 3,26 GB (занимает 0,74 DVDR, для записи нужно 1 болванка DVDR/RW)
 
 

Яндекс.Метрика powered by Sphinx


В Н И М А Н И Е
Сайт не распространяет и не хранит электронные версии произведений, а лишь бесплатно и без коммерческой выгоды (не требуя взамен платы,
SMS и т.д.) предоставляет доступ к создаваемому пользователями каталогу ссылок на торрент-файлы, которые содержат только списки хеш-сумм.
Убедительная просьба с жалобами обращаться напрямую к пользователю, разместившему торрент файл.

Вверх