Loading...
Error

Освобождение (Юрий Озеров) [1968, 1969, 1970, 1971 г., драма, военный, DVDRip-AVC]

Статистика раздачи
Размер:  7,96 GB   |    Зарегистрирован:  3 года 11 месяцев   |    Скачан:  16 раз

Полного источника не было: 6 дней

Сидов:  0  |  0 KB/s  ]   Личеров:  0  |  0 KB/s  ]

* - сиды/пиры с внешних источников

   
 
Автор Сообщение

garry Пол:Муж

10-Дек-2012 22:53

Освобождение: Огненная дуга


Год выпуска: 1968
Жанр: драма, мелодрама, военный
Страна: СССР , Германия , Польша , Италия
Режиссер: Юрий Озеров
В ролях: Николай Олялин, Лариса Голубкина, Борис Зайденберг, Сергей Никоненко, Всеволод Санаев, Владимир Самойлов, Ян Энглерт, Михаил Ульянов, Бухути Закариадзе, Фриц Диц
Сюжет фильма:
Масштабная историческая киноэпопея Юрия Озерова «Освобождение» состоит из пяти фильмов.

Фильм первый — «Огненная Дуга» повествует о грандиозной битве на Курской дуге летом 1943 года. Здесь произошло самое крупное в истории Второй мировой войны танковое сражение. Наряду с личными судьбами героев в фильме показаны батальные сцены, деятельность штабов и разведок, тех, кто трудился на фронте и в тылу.

  • Мировая премьера: 7 мая 1970


Качество видео: DVDRip-AVC

Продолжительность: 01:27:54
Формат: MKV
Видео: x264, 704x316@748x316, 1876 kbps
Аудио: русский, оригинал, AC3 5.1, 448 kbps

Код:

Уникальный идентификатор : 174015761980330974232832970588753383414 (0x82EA37784BE40A1A8998CB42F45E4FF6)
 Полное имя : D:\освобождение\Osvobozdenie\1 Ognennaya duga\Огненная дуга.mkv
 Формат : Matroska
 Версия формата : Version 2
 Размер файла : 1,46 Гбайт
 Продолжительность : 1 ч. 27 м.
 Общий поток : 2371 Кбит/сек
 Дата кодирования : UTC 2012-11-13 03:02:20
 Программа кодирования : mkvmerge v3.4.0 ('Rapunzel') сборка от May 15 2010 09:38:20
 Библиотека кодирования : libebml v0.8.0 + libmatroska v0.9.0

Видео
 Идентификатор : 1
 Формат : AVC
 Формат/Информация : Advanced Video Codec
 Профиль формата : High@L3.1
 Параметр CABAC формата : Да
 Параметр ReFrames формата : 12 кадров
 Идентификатор кодека : V_MPEG4/ISO/AVC
 Продолжительность : 1 ч. 27 м.
 Битрейт : 1876 Кбит/сек
 Ширина : 704 пикселя
 Высота : 316 пикселей
 Соотношение сторон : 2,35:1
 Соотношение сторон в оригинале : 2,35:1
 Режим частоты кадров : Постоянный
 Частота кадров : 25,000 кадров/сек
 Цветовое пространство : YUV
 Субдискретизация насыщенности : 4:2:0
 Битовая глубина : 8 бит
 Тип развёртки : Прогрессивная
 Бит/(Пиксели*Кадры) : 0.337
 Размер потока : 1,15 Гбайт (79%)
 Библиотека кодирования : x264 core 125 r2208 d9d2288
 Настройки программы : cabac=1 / ref=12 / deblock=1:-2:-2 / analyse=0x3:0x133 / me=umh / subme=11 / psy=1 / psy_rd=1.05:0.10 / mixed_ref=1 / me_range=32 / chroma_me=1 / trellis=2 / 8x8dct=1 / cqm=0 / deadzone=21,11 / fast_pskip=1 / chroma_qp_offset=-3 / threads=9 / lookahead_threads=1 / sliced_threads=0 / nr=0 / decimate=1 / interlaced=0 / bluray_compat=0 / constrained_intra=0 / bframes=10 / b_pyramid=2 / b_adapt=2 / b_bias=0 / direct=1 / weightb=1 / open_gop=0 / weightp=2 / keyint=250 / keyint_min=25 / scenecut=40 / intra_refresh=0 / rc=crf / mbtree=0 / crf=17.2 / qcomp=0.80 / qpmin=0 / qpmax=69 / qpstep=4 / ip_ratio=1.40 / pb_ratio=1.30 / aq=1:0.80
 Язык : English
 Default : Нет
 Forced : Нет

Аудио
 Идентификатор : 2
 Формат : AC-3
 Формат/Информация : Audio Coding 3
 Расширение режима : CM (complete main)
 Параметр Endianness формата : Big
 Идентификатор кодека : A_AC3
 Продолжительность : 1 ч. 27 м.
 Вид битрейта : Постоянный
 Битрейт : 448 Кбит/сек
 Каналы : 6 каналов
 Расположение каналов : Front: L C R, Side: L R, LFE
 Частота : 48,0 КГц
 Битовая глубина : 16 бит
 Метод сжатия : С потерями
 Размер потока : 282 Мбайт (19%)
 Default : Да
 Forced : Нет
Семпл: http://multi-up.com/796207

picpicpic
Для увеличения картинки щелкните мышкой по превью

Освобождение: Прорыв


Год выпуска: 1969
Жанр: драма, военный
Страна: СССР
Режиссер: Юрий Озеров
В ролях: Михаил Ульянов, Николай Олялин, Сергей Никоненко, Барбара Брыльска, Лариса Голубкина, Владислав Стржельчик, Борис Зайденберг, Всеволод Санаев, Владимир Самойлов, Валерий Носик
Сюжет фильма:
Масштабная историческая киноэпопея Юрия Озерова «Освобождение» состоит из пяти фильмов.

Фильм второй — «Прорыв» посвящен битве за Днепр и наступательной операции советских войск в 1944 г. В центре этого фильма судьба батальона, сражавшегося на этом плацдарме.

  • Мировая премьера: 9 мая 1970

Качество видео: DVDRip-AVC

Продолжительность: 1:24:58
Формат: MKV
Видео: x264, 704x316@750x316, 1932 kbps
Аудио: русский, оригинал, AC3 5.1, 448 kbps

Код:

Уникальный идентификатор : 253352860528066094023252014545366022997 (0xBE99FC6E58137F8AB87F81119981FB55)
 Полное имя : D:\освобождение\Osvobozdenie\2 Proryv\Прорыв.mkv
 Формат : Matroska
 Версия формата : Version 2
 Размер файла : 1,44 Гбайт
 Продолжительность : 1 ч. 24 м.
 Общий поток : 2429 Кбит/сек
 Дата кодирования : UTC 2012-11-16 14:51:08
 Программа кодирования : mkvmerge v3.4.0 ('Rapunzel') сборка от May 15 2010 09:38:20
 Библиотека кодирования : libebml v0.8.0 + libmatroska v0.9.0

Видео
 Идентификатор : 1
 Формат : AVC
 Формат/Информация : Advanced Video Codec
 Профиль формата : High@L4.1
 Параметр CABAC формата : Да
 Параметр ReFrames формата : 12 кадров
 Идентификатор кодека : V_MPEG4/ISO/AVC
 Продолжительность : 1 ч. 24 м.
 Битрейт : 1932 Кбит/сек
 Ширина : 704 пикселя
 Высота : 316 пикселей
 Соотношение сторон : 2,40:1
 Соотношение сторон в оригинале : 2,40:1
 Режим частоты кадров : Постоянный
 Частота кадров : 25,000 кадров/сек
 Цветовое пространство : YUV
 Субдискретизация насыщенности : 4:2:0
 Битовая глубина : 8 бит
 Тип развёртки : Прогрессивная
 Бит/(Пиксели*Кадры) : 0.347
 Размер потока : 1,15 Гбайт (80%)
 Библиотека кодирования : x264 core 125 r2208 d9d2288
 Настройки программы : cabac=1 / ref=12 / deblock=1:-2:-2 / analyse=0x3:0x113 / me=umh / subme=11 / psy=1 / psy_rd=1.05:0.10 / mixed_ref=1 / me_range=32 / chroma_me=1 / trellis=2 / 8x8dct=1 / cqm=0 / deadzone=21,11 / fast_pskip=1 / chroma_qp_offset=-3 / threads=9 / lookahead_threads=1 / sliced_threads=0 / nr=0 / decimate=1 / interlaced=0 / bluray_compat=0 / constrained_intra=0 / bframes=10 / b_pyramid=2 / b_adapt=2 / b_bias=0 / direct=1 / weightb=1 / open_gop=0 / weightp=2 / keyint=250 / keyint_min=25 / scenecut=40 / intra_refresh=0 / rc=crf / mbtree=0 / crf=17.3 / qcomp=0.80 / qpmin=0 / qpmax=69 / qpstep=4 / ip_ratio=1.40 / pb_ratio=1.30 / aq=1:0.80
 Язык : English
 Default : Нет
 Forced : Нет

Аудио
 Идентификатор : 2
 Формат : AC-3
 Формат/Информация : Audio Coding 3
 Расширение режима : CM (complete main)
 Параметр Endianness формата : Big
 Идентификатор кодека : A_AC3
 Продолжительность : 1 ч. 24 м.
 Вид битрейта : Постоянный
 Битрейт : 448 Кбит/сек
 Каналы : 6 каналов
 Расположение каналов : Front: L C R, Side: L R, LFE
 Частота : 48,0 КГц
 Битовая глубина : 16 бит
 Метод сжатия : С потерями
 Размер потока : 272 Мбайт (18%)
 Default : Да
 Forced : Нет
Семпл: http://multi-up.com/796210

picpicpic
Для увеличения картинки щелкните мышкой по превью

Освобождение: Направление главного удара


Год выпуска: 1970
Жанр: военный
Страна: СССР , Польша , Германия
Режиссер: Юрий Озеров
В ролях: Николай Олялин, Лариса Голубкина, Борис Зайденберг, Михаил Ульянов, Владлен Давыдов, Евгений Буренков, Владислав Стржельчик, Василий Шукшин, Сергей Харченко, Е. Колчинский
Сюжет фильма:
Масштабная историческая киноэпопея Юрия Озерова «Освобождение» состоит из пяти фильмов.

Фильм третий — «Направление главного удара» посвящен операции «Багратион», в результате которой была полностью освобождена от фашистских войск Белоруссия, и войска Советской армии вышли к государственной границе…

  • Мировая премьера: 27 марта 1971


Качество видео: DVDRip-AVC

Продолжительность: 0:58:18 + 1:03:54
Формат: MKV
Видео: x264, 720x328@768x328, 2077 kbps
Аудио: русский, оригинал, AC3 5.1, 448 kbps

Код:

Уникальный идентификатор : 205921620055384435954489142078659329120 (0x9AEB0FB99F9CB9F39642F47C6FB77C60)
 Полное имя : D:\освобождение\Osvobozdenie\3 Napravlenie_glavnogo_udara\Направление_главного_удара.mkv
 Формат : Matroska
 Версия формата : Version 2
 Размер файла : 2,20 Гбайт
 Продолжительность : 2 ч. 2 м.
 Общий поток : 2576 Кбит/сек
 Дата кодирования : UTC 2012-11-20 12:37:34
 Программа кодирования : mkvmerge v3.4.0 ('Rapunzel') сборка от May 15 2010 09:38:20
 Библиотека кодирования : libebml v0.8.0 + libmatroska v0.9.0

Видео
 Идентификатор : 1
 Формат : AVC
 Формат/Информация : Advanced Video Codec
 Профиль формата : High@L4.1
 Параметр CABAC формата : Да
 Параметр ReFrames формата : 12 кадров
 Идентификатор кодека : V_MPEG4/ISO/AVC
 Продолжительность : 2 ч. 2 м.
 Битрейт : 2077 Кбит/сек
 Ширина : 720 пикселей
 Высота : 328 пикселей
 Соотношение сторон : 2,35:1
 Соотношение сторон в оригинале : 2,35:1
 Режим частоты кадров : Постоянный
 Частота кадров : 25,000 кадров/сек
 Цветовое пространство : YUV
 Субдискретизация насыщенности : 4:2:0
 Битовая глубина : 8 бит
 Тип развёртки : Прогрессивная
 Бит/(Пиксели*Кадры) : 0.352
 Размер потока : 1,77 Гбайт (81%)
 Библиотека кодирования : x264 core 125 r2208 d9d2288
 Настройки программы : cabac=1 / ref=12 / deblock=1:-2:-2 / analyse=0x3:0x133 / me=umh / subme=11 / psy=1 / psy_rd=1.05:0.10 / mixed_ref=1 / me_range=32 / chroma_me=1 / trellis=2 / 8x8dct=1 / cqm=0 / deadzone=21,11 / fast_pskip=1 / chroma_qp_offset=-3 / threads=9 / lookahead_threads=1 / sliced_threads=0 / nr=0 / decimate=1 / interlaced=0 / bluray_compat=0 / constrained_intra=0 / bframes=10 / b_pyramid=2 / b_adapt=2 / b_bias=0 / direct=1 / weightb=1 / open_gop=0 / weightp=2 / keyint=250 / keyint_min=25 / scenecut=40 / intra_refresh=0 / rc=crf / mbtree=0 / crf=17.2 / qcomp=0.80 / qpmin=0 / qpmax=69 / qpstep=4 / ip_ratio=1.40 / pb_ratio=1.30 / aq=1:0.80
 Язык : English
 Default : Нет
 Forced : Нет

Аудио
 Идентификатор : 2
 Формат : AC-3
 Формат/Информация : Audio Coding 3
 Расширение режима : CM (complete main)
 Параметр Endianness формата : Big
 Идентификатор кодека : A_AC3
 Продолжительность : 2 ч. 2 м.
 Вид битрейта : Постоянный
 Битрейт : 448 Кбит/сек
 Каналы : 6 каналов
 Расположение каналов : Front: L C R, Side: L R, LFE
 Частота : 48,0 КГц
 Битовая глубина : 16 бит
 Метод сжатия : С потерями
 Размер потока : 392 Мбайт (17%)
 Default : Да
 Forced : Нет
Семпл: http://multi-up.com/796271

picpicpic
Для увеличения картинки щелкните мышкой по превью

Освобождение: Битва за Берлин


Год выпуска: 1971
Жанр: военный
Страна: СССР
Режиссер: Юрий Озеров
В ролях: Михаил Ульянов, Василий Шукшин, Лариса Голубкина, Валерий Носик, Михаил Ножкин, Николай Олялин, Владислав Стржельчик, Борис Зайденберг, Артем Карапетян, Эдуард Изотов
Сюжет фильма:
Масштабная историческая киноэпопея Юрия Озерова «Освобождение» состоит из пяти фильмов.

Фильм четвертый — «Битва за Берлин». 1945 г. Последние месяцы войны. Именно в эти дни решалась судьба порабощенной Европы. Началась Висло-Одерская операция. Три фронта под командованием Конева, Жукова и Рокоссовского устремились к столице Германии. К Берлину идут и англо-американские войска. «Опередить русских», — предлагает Черчиль и начинаются тайные переговоры с эмиссарами Гитлера, разоблаченные Ялтинской конференцией. Судьба Берлина решится на полях сражений.

  • Мировая премьера: 5 ноября 1971

Качество видео: DVDRip-AVC

Продолжительность: 01:19:00
Формат: MKV
Видео: x264, 720x328@768x328, 2077 kbps
Аудио: русский, оригинал, AC3 5.1, 448 kbps

Код:

Уникальный идентификатор : 190888141039958331165352971250843370850 (0x8F9BB7FBC9AD793FAA60BF3A58C5C562)
 Полное имя : D:\освобождение\Osvobozdenie\4 Bitva_za_Berlin\Битва за Берлин.mkv
 Формат : Matroska
 Версия формата : Version 2
 Размер файла : 1,42 Гбайт
 Продолжительность : 1 ч. 19 м.
 Общий поток : 2576 Кбит/сек
 Дата кодирования : UTC 2012-11-23 04:53:38
 Программа кодирования : mkvmerge v3.4.0 ('Rapunzel') сборка от May 15 2010 09:38:20
 Библиотека кодирования : libebml v0.8.0 + libmatroska v0.9.0

Видео
 Идентификатор : 1
 Формат : AVC
 Формат/Информация : Advanced Video Codec
 Профиль формата : High@L4.1
 Параметр CABAC формата : Да
 Параметр ReFrames формата : 12 кадров
 Идентификатор кодека : V_MPEG4/ISO/AVC
 Продолжительность : 1 ч. 19 м.
 Битрейт : 2077 Кбит/сек
 Ширина : 720 пикселей
 Высота : 328 пикселей
 Соотношение сторон : 2,35:1
 Соотношение сторон в оригинале : 2,35:1
 Режим частоты кадров : Постоянный
 Частота кадров : 25,000 кадров/сек
 Цветовое пространство : YUV
 Субдискретизация насыщенности : 4:2:0
 Битовая глубина : 8 бит
 Тип развёртки : Прогрессивная
 Бит/(Пиксели*Кадры) : 0.352
 Размер потока : 1,15 Гбайт (81%)
 Библиотека кодирования : x264 core 125 r2208 d9d2288
 Настройки программы : cabac=1 / ref=12 / deblock=1:-2:-2 / analyse=0x3:0x133 / me=umh / subme=11 / psy=1 / psy_rd=1.05:0.10 / mixed_ref=1 / me_range=32 / chroma_me=1 / trellis=2 / 8x8dct=1 / cqm=0 / deadzone=21,11 / fast_pskip=1 / chroma_qp_offset=-3 / threads=9 / lookahead_threads=1 / sliced_threads=0 / nr=0 / decimate=1 / interlaced=0 / bluray_compat=0 / constrained_intra=0 / bframes=10 / b_pyramid=2 / b_adapt=2 / b_bias=0 / direct=1 / weightb=1 / open_gop=0 / weightp=2 / keyint=250 / keyint_min=25 / scenecut=40 / intra_refresh=0 / rc=crf / mbtree=0 / crf=17.2 / qcomp=0.80 / qpmin=0 / qpmax=69 / qpstep=4 / ip_ratio=1.40 / pb_ratio=1.30 / aq=1:0.80
 Язык : English
 Default : Нет
 Forced : Нет

Аудио
 Идентификатор : 2
 Формат : AC-3
 Формат/Информация : Audio Coding 3
 Расширение режима : CM (complete main)
 Параметр Endianness формата : Big
 Идентификатор кодека : A_AC3
 Продолжительность : 1 ч. 19 м.
 Вид битрейта : Постоянный
 Битрейт : 448 Кбит/сек
 Каналы : 6 каналов
 Расположение каналов : Front: L C R, Side: L R, LFE
 Частота : 48,0 КГц
 Битовая глубина : 16 бит
 Метод сжатия : С потерями
 Размер потока : 253 Мбайт (17%)
 Default : Да
 Forced : Нет
Семпл: http://multi-up.com/796315

picpicpic
Для увеличения картинки щелкните мышкой по превью

Освобождение: Последний штурм


Год выпуска: 1971
Жанр: военный
Страна: СССР
Режиссер: Юрий Озеров
В ролях: Михаил Ульянов, Василий Шукшин, Валерий Носик, Борис Зайденберг, Лариса Голубкина, Владислав Стржельчик, Николай Олялин, Михаил Ножкин, Эдуард Изотов, Артем Карапетян
Сюжет фильма:
Масштабная историческая киноэпопея Юрия Озерова «Освобождение» состоит из пяти фильмов.

Фильм пятый — «Последний штурм». Последние дни войны, штурм рейхстага, сражение за каждый метр, за каждый этаж — и, наконец, водружение Знамени Победы над рейхстагом. Раздались первые залпы Победы. Главные герои фильма встречаются у входа в рейхстаг.

  • Мировая премьера: 5 ноября 1971

Качество видео: DVDRip-AVC

Продолжительность: 01:11:22
Формат: MKV
Видео: x264, 720x328@768x328, 2395 kbps
Аудио: русский, оригинал, AC3 5.1, 448 kbps

Код:

Уникальный идентификатор : 204652191550230599378057949785939756917 (0x99F694114EF74D34AD35009DDDC7C775)
 Полное имя : D:\освобождение\Osvobozdenie\5 Poslednij_shturm\Последний штурм.mkv
 Формат : Matroska
 Версия формата : Version 2
 Размер файла : 1,45 Гбайт
 Продолжительность : 1 ч. 11 м.
 Общий поток : 2901 Кбит/сек
 Дата кодирования : UTC 2012-11-24 05:49:30
 Программа кодирования : mkvmerge v3.4.0 ('Rapunzel') сборка от May 15 2010 09:38:20
 Библиотека кодирования : libebml v0.8.0 + libmatroska v0.9.0

Видео
 Идентификатор : 1
 Формат : AVC
 Формат/Информация : Advanced Video Codec
 Профиль формата : High@L4.1
 Параметр CABAC формата : Да
 Параметр ReFrames формата : 12 кадров
 Идентификатор кодека : V_MPEG4/ISO/AVC
 Продолжительность : 1 ч. 11 м.
 Битрейт : 2395 Кбит/сек
 Ширина : 720 пикселей
 Высота : 328 пикселей
 Соотношение сторон : 2,35:1
 Соотношение сторон в оригинале : 2,35:1
 Режим частоты кадров : Постоянный
 Частота кадров : 25,000 кадров/сек
 Цветовое пространство : YUV
 Субдискретизация насыщенности : 4:2:0
 Битовая глубина : 8 бит
 Тип развёртки : Прогрессивная
 Бит/(Пиксели*Кадры) : 0.406
 Размер потока : 1,19 Гбайт (83%)
 Библиотека кодирования : x264 core 125 r2208 d9d2288
 Настройки программы : cabac=1 / ref=12 / deblock=1:-2:-2 / analyse=0x3:0x133 / me=umh / subme=11 / psy=1 / psy_rd=1.05:0.10 / mixed_ref=1 / me_range=32 / chroma_me=1 / trellis=2 / 8x8dct=1 / cqm=0 / deadzone=21,11 / fast_pskip=1 / chroma_qp_offset=-3 / threads=9 / lookahead_threads=1 / sliced_threads=0 / nr=0 / decimate=1 / interlaced=0 / bluray_compat=0 / constrained_intra=0 / bframes=10 / b_pyramid=2 / b_adapt=2 / b_bias=0 / direct=1 / weightb=1 / open_gop=0 / weightp=2 / keyint=250 / keyint_min=25 / scenecut=40 / intra_refresh=0 / rc=crf / mbtree=0 / crf=17.2 / qcomp=0.80 / qpmin=0 / qpmax=69 / qpstep=4 / ip_ratio=1.40 / pb_ratio=1.30 / aq=1:0.80
 Язык : English
 Default : Нет
 Forced : Нет

Аудио
 Идентификатор : 2
 Формат : AC-3
 Формат/Информация : Audio Coding 3
 Расширение режима : CM (complete main)
 Параметр Endianness формата : Big
 Идентификатор кодека : A_AC3
 Продолжительность : 1 ч. 11 м.
 Вид битрейта : Постоянный
 Битрейт : 448 Кбит/сек
 Каналы : 6 каналов
 Расположение каналов : Front: L C R, Side: L R, LFE
 Частота : 48,0 КГц
 Битовая глубина : 16 бит
 Метод сжатия : С потерями
 Размер потока : 229 Мбайт (15%)
 Default : Да
 Forced : Нет
Семпл: http://multi-up.com/796322

picpicpic
Для увеличения картинки щелкните мышкой по превью

Этот торрент недоступен для скачивания без регистрации, однако доступен по публичной magnet-ссылке (источники с публичных трекеров). Перед использованием ссылки прочтите, пожалуйста Пользовательское соглашение, а также как можно дольше оставайтесь на раздаче! Для того, чтобы скачать сам торрент-файл (который видит больше источников), а также для того, чтобы поблагодарить релизера, вам необходимо зарегистрироваться. Если регистрироваться лень - вы можете также попробовать скачать релиз по нашим партнерским ссылкам ниже.

[underverse.su].t22158.torrent
Трекер: Зарегистрирован   [ 10.12.2012 22:53 ]  

Статус: проверено (by garry at 10.12.2012 22:53)
Поблагодарили: 1 человек
Тип торрента: публичный - доступные источники с открытых трекеров: 
Размер: 7,96 GB (занимает 1,82 DVDR, для записи нужно 2 болванки DVDR/RW)
 
 
Похожие темы
Форум Тема Автор Торрент Отв. Посл. сооб.
Наше кино [DVDRip, Low-Res HDRip, и т.д.] Освобождение (Юрий Озеров) [1969 - 71 гг., Военный, DVDRip-AVC] 90ytr90
0 | 0

0 | 1032

6

22.09.2012 10:29

Кино СССР Освобождение (Юрий Озеров) [1969 - 71 гг., военный, BDRip] 90ytr90
96 | 12

0 | 209

3

30.11.2016 20:42

Военные хроники Освобождение [серии 01-32 (32)] (Денис Мицук, Денис Андреев) [2012-2013 г., документальный, SATRip] 90ytr90
10 | 0

0 | 1753

13

09.11.2013 09:57


Яндекс.Метрика powered by Sphinx


В Н И М А Н И Е
Сайт не распространяет и не хранит электронные версии произведений, а лишь бесплатно и без коммерческой выгоды (не требуя взамен платы,
SMS и т.д.) предоставляет доступ к создаваемому пользователями каталогу ссылок на торрент-файлы, которые содержат только списки хеш-сумм.
Убедительная просьба с жалобами обращаться напрямую к пользователю, разместившему торрент файл.

Вверх