Loading...
Error

Железный человек / Iron Man (Джон Фавро) [2008 г., фантастика, боевик, приключения, BDRip] Dub (Rus,Ukr) + Original + Sub (Rus,Ukr,Eng) HQ Underverse

Статистика раздачи
Размер:  2,17 GB   |    Зарегистрирован:  3 года 11 месяцев   |    Скачан:  28 раз

Полного источника не было: 3 месяца 21 день

Сидов:  0  |  0 KB/s  ]   Личеров:  0  |  0 KB/s  ]

* - сиды/пиры с внешних источников

   
 
Автор Сообщение

HQ Underverse 

10-Дек-2012 19:56

Железный человек / Iron Man


Год выпуска: 2008
Жанр: фантастика, боевик, приключения
Страна: США
Режиссер: Джон Фавро
В ролях: Роберт Дауни мл., Джефф Бриджес, Гвинет Пэлтроу, Терренс Ховард, Лесли Бибб, Шон Тоуб, Фаран Таир, Кларк Грегг, Джон Фавро, Саид Бадрия
Сюжет фильма:
Миллиардер изобретатель Тони Старк попадает в плен к Афганским террористам, которые пытаются заставить его создать оружие массового поражения. В тайне от своих захватчиков Старк конструирует высокотехнологичную киберброню, которая помогает ему сбежать. Однако по возвращению в США он узнаёт, что в совете директоров его фирмы плетётся заговор, чреватый страшными последствиями. Используя своё последнее изобретение, Старк пытается решить проблемы своей компании радикально…

  • Мировая премьера: 14 апреля 2008
  • Российская премьера: 1 мая 2008, «UPI»


Качество видео: BDRip [Iron Man 2008 Blu-ray 1080p Remux AVC TrueHD 5.1-BluHD]

Продолжительность: 02:06:01
Формат: avi
Видео: XviD, 720x304, 2006 kbps
Аудио #1: русский, дублированный [лицензия], AC3 5.1, 448 kbps
Аудио #2: украинский, дублированный [лицензия], AC3 5.1, 448 kbps (отдельным файлом)
Аудио #3: английский, оригинал, AC3 5.1, 448 kbps (отдельным файлом)
Субтитры #1: внешние, SRT, английский
Субтитры #2: внешние, SRT, английский Forced
Субтитры #3: внешние, SRT, русский
Субтитры #4: внешние, SRT, русский Forced
Субтитры #5: внешние, SRT, украинский
Субтитры #6: внешние, SRT, украинский Forced

Код:

General
Complete name                    : D:\Video\Movies\Releases\Iron.Man.2008.BDRip.XviD.AC3.Rus.D.HQ.Underverse.avi
Format                           : AVI
Format/Info                      : Audio Video Interleave
Format profile                   : OpenDML
File size                        : 2.17 GiB
Duration                         : 2h 6mn
Overall bit rate                 : 2 466 Kbps
Writing application              : VirtualDubMod 1.5.10.2 (build 2540/release)
Writing library                  : VirtualDubMod build 2540/release

Video
ID                               : 0
Format                           : MPEG-4 Visual
Format profile                   : Streaming Video@L1
Format settings, BVOP            : Yes
Format settings, QPel            : No
Format settings, GMC             : No warppoints
Format settings, Matrix          : Custom
Muxing mode                      : Packed bitstream
Codec ID                         : XVID
Codec ID/Hint                    : XviD
Duration                         : 2h 6mn
Bit rate                         : 2 006 Kbps
Width                            : 720 pixels
Height                           : 304 pixels
Display aspect ratio             : 2.35
Frame rate                       : 23.976 fps
Resolution                       : 24 bits
Colorimetry                      : 4:2:0
Scan type                        : Progressive
Bits/(Pixel*Frame)               : 0.382
Stream size                      : 1.77 GiB (81%)
Writing library                  : XviD 64

Audio
ID                               : 1
Format                           : AC-3
Format/Info                      : Audio Coding 3
Codec ID                         : 2000
Duration                         : 2h 6mn
Bit rate mode                    : Constant
Bit rate                         : 448 Kbps
Channel(s)                       : 6 channels
Channel positions                : Front: L C R, Surround: L R, LFE
Sampling rate                    : 48.0 KHz
Stream size                      : 404 MiB (18%)
Alignment                        : Split accross interleaves
Interleave, duration             : 42 ms (1.00 video frame)
Interleave, preload duration     : 500 ms
Title                            : Iron.Man.2008.AC3.Rus.D.448.kbps.HQ.Underverse.ac3

General
Complete name                    : D:\Video\Movies\Releases\Iron.Man.2008.BDRip.XviD.AC3.Rus.D.HQ.Underverse.Eng.ac3
Format                           : AC-3
Format/Info                      : Audio Coding 3
File size                        : 404 MiB
Duration                         : 2h 6mn
Overall bit rate                 : 448 Kbps

Audio
Format                           : AC-3
Format/Info                      : Audio Coding 3
Duration                         : 2h 6mn
Bit rate mode                    : Constant
Bit rate                         : 448 Kbps
Channel(s)                       : 6 channels
Channel positions                : Front: L C R, Surround: L R, LFE
Sampling rate                    : 48.0 KHz
Stream size                      : 404 MiB (100%)

General
Complete name                    : D:\Video\Movies\Releases\Iron.Man.2008.BDRip.XviD.AC3.Rus.D.HQ.Underverse.Ukr.ac3
Format                           : AC-3
Format/Info                      : Audio Coding 3
File size                        : 404 MiB
Duration                         : 2h 6mn
Overall bit rate                 : 448 Kbps

Audio
Format                           : AC-3
Format/Info                      : Audio Coding 3
Duration                         : 2h 6mn
Bit rate mode                    : Constant
Bit rate                         : 448 Kbps
Channel(s)                       : 6 channels
Channel positions                : Front: L C R, Surround: L R, LFE
Sampling rate                    : 48.0 KHz
Stream size                      : 404 MiB (100%)

Семпл: http://multi-up.com/801811

Релиз группы:

picpicpic
Для увеличения картинки щелкните мышкой по превью

Этот торрент недоступен для скачивания без регистрации, однако доступен по публичной magnet-ссылке (источники с публичных трекеров). Перед использованием ссылки прочтите, пожалуйста Пользовательское соглашение, а также как можно дольше оставайтесь на раздаче! Для того, чтобы скачать сам торрент-файл (который видит больше источников), а также для того, чтобы поблагодарить релизера, вам необходимо зарегистрироваться. Если регистрироваться лень - вы можете также попробовать скачать релиз по нашим партнерским ссылкам ниже.

[underverse.su].t22154.torrent
Трекер: Зарегистрирован   [ 10.12.2012 19:56 ]  

Статус: проверено (by garry at 10.12.2012 20:01)
Поблагодарили: 2 человека
Тип торрента: публичный - доступные источники с открытых трекеров: 
Размер: 2,17 GB (занимает 1/2 DVDR, для записи нужно 1 болванка DVDR/RW)
 
 
Похожие темы
Форум Тема Автор Торрент Отв. Посл. сооб.
Зарубежное кино [DVDRip, Low-Res HDRip, и т.д.] Железный человек 3 / Iron Man 3 (Шейн Блэк / Shane Black) [2013 г., фантастика, боевик, триллер, WEB-DLRip] Dub [iTunes Russia] Паукан
2 | 0

0 | 1502

103

15.08.2013 10:32

Зарубежное кино [DVDRip, Low-Res HDRip, и т.д.] Железный человек / Iron Man (Джон Фавро) [2008 г., фантастика, боевик, приключения, BDRip-AVC] Dub 90ytr90
3 | 0

0 | 657

25

23.12.2012 17:00

Зарубежное кино [DVDRip, Low-Res HDRip, и т.д.] Железный человек 2 / Iron Man 2 (Джон Фавро) [2010 г., фантастика, боевик, приключения, BDRip-AVC] Dub 90ytr90
3 | 0

0 | 697

25

24.12.2012 13:30

Зарубежное кино [DVDRip, Low-Res HDRip, и т.д.] Железный человек 3 / Iron Man 3 (Шейн Блэк / Shane Black) [2013 г., фантастика, боевик, триллер, WEB-DLRip] Dub [iTunes Russia] Паукан
2 | 0

0 | 1016

64

15.08.2013 06:33

Зарубежное кино [DVDRip, Low-Res HDRip, и т.д.] Железный человек 3 / Iron Man 3 (Шейн Блэк) [2013 г., фантастика, боевик, приключения, HDRip] | Лицензия Чертёнок
10 | 0

2 | 2181

192

03.09.2013 15:55

Зарубежное кино [DVDRip, Low-Res HDRip, и т.д.] Железный человек №28 / Тецуджин 28 / Tetsujin niju-hachigo (Шин Тогаси) [2005 г., фантастика, фэнтези, боевик, приключения, DVDRip] VO makkol
4 | 0

0 | 756

8

12.09.2015 11:21

Зарубежное кино HQ Железный человек 2 / Iron Man 2 (Джон Фавро) [2010 г., фантастика, боевик, приключения, BDRip] Dub (Rus,Ukr) + Original + Subs (Rus,Ukr,Eng) HQ Underverse HQ Underverse
0 | 0

2 | 1752

36

28.02.2013 10:54

Зарубежное кино HQ Железный человек 3 / Iron Man 3 (Шейн Блэк) [2013 г., фантастика, боевик, триллер, BDRip] Dub (Rus,Ukr) + Original + Sub (Rus,Ukr,Eng) HQ Underverse HQ Underverse
1 | 0

2 | 2376

137

18.12.2013 14:57

Зарубежные мультфильмы Железный Человек: Восстание Техновора / Iron Man: Rise of Technovore (Хироши Хамасаки) [2013 г., мультфильм, фантастика, боевик, HDRip] VO 90ytr90
7 | 0

0 | 1550

46

14.04.2013 08:20

Зарубежные мультфильмы Железный человек и Халк: Союз героев / Iron Man & Hulk: Heroes United (Лео Райли) [2013 г., мультфильм, фантастика, боевик, HDRip] Dub 90ytr90
26 | 4

0 | 2119

46

27.11.2013 05:47


Яндекс.Метрика powered by Sphinx


В Н И М А Н И Е
Сайт не распространяет и не хранит электронные версии произведений, а лишь бесплатно и без коммерческой выгоды (не требуя взамен платы,
SMS и т.д.) предоставляет доступ к создаваемому пользователями каталогу ссылок на торрент-файлы, которые содержат только списки хеш-сумм.
Убедительная просьба с жалобами обращаться напрямую к пользователю, разместившему торрент файл.

Вверх