Loading...
Error

Что-то не так с Кевином / We Need to Talk About Kevin (Линн Рэмси) [2011 г., триллер, драма, BDRip] MVO

Статистика раздачи
Размер:  2,18 GB   |    Зарегистрирован:  3 года 11 месяцев   |    Скачан:  20 раз

Полного источника не было: 14 часов

Сидов:  0  |  0 KB/s  ]   Личеров:  0  |  0 KB/s  ]

* - сиды/пиры с внешних источников

   
 
Автор Сообщение

Jimmy Пол:Муж

10-Дек-2012 15:24

Что-то не так с Кевином / We Need to Talk About Kevin

Год выпуска: 2011
Жанр: триллер, драма
Страна: Великобритания
Режиссер: Линн Рэмси
В ролях: Тильда Суинтон, Эзра Миллер, Джон Си Райли, Джаспер Ньюэлл, Рок Дер, Эшли Герасимович, Шиван Фэллон, Алекс Манетт, Кеннет Франклин, Лесли Лайлс
Сюжет фильма:
Отложив в сторону все личные и профессиональные амбиции, Ева посвящает жизнь рождению и воспитанию сына. Однако их отношения с самого начала оказываются крайне сложными. В пятнадцать лет Кевин совершает непоправимое, и Ева мучается сознанием ответственности и собственной вины. Достаточно ли она любила своего сына? Какова доля ее вины в происшедшем?..

  • Мировая премьера: 12 мая 2011
  • Российская премьера: 19 января 2012, «Вольга»


Качество видео: BDRip

Продолжительность: 01:51:58
Формат: avi
Видео: XviD, 720x304, 1773 kbps
Аудио #1: русский, многоголосый закадровый [профессиональный], AC3 5.1, 448 kbps
Аудио #2: английский, оригинал, AC3 5.1, 448 kbps

Код:

General
Complete name                    : F:\Under\blablabla\_на время конкурса\Chto.to.ne.tak.s.Kevinom.2011.DUAL.BDRip.XviD.AC3.-HQCLUB.avi
Format                           : AVI
Format/Info                      : Audio Video Interleave
File size                        : 2.18 GiB
Duration                         : 1h 51mn
Overall bit rate                 : 2 791 Kbps
Movie name                       : Что-то не так с Кевином / We Need to Talk About Kevin (2011) BDRip
Director                         : yaroslaigor
Genre                            : триллер, драма
Writing application              : VirtualDubMod 1.5.10.2 (build 2540/release)
Copyright                        : http://hqclub.net/
Comment                          : 08.12.2012

Video
ID                               : 0
Format                           : MPEG-4 Visual
Format profile                   : Streaming Video@L1
Format settings, BVOP            : Yes
Format settings, QPel            : No
Format settings, GMC             : No warppoints
Format settings, Matrix          : Custom
Codec ID                         : XVID
Codec ID/Hint                    : XviD
Duration                         : 1h 51mn
Bit rate                         : 1 774 Kbps
Width                            : 720 pixels
Height                           : 304 pixels
Display aspect ratio             : 2.35
Frame rate                       : 24.000 fps
Resolution                       : 24 bits
Colorimetry                      : 4:2:0
Scan type                        : Progressive
Bits/(Pixel*Frame)               : 0.338
Stream size                      : 1.39 GiB (64%)
Writing library                  : XviD 65

Audio #1
ID                               : 1
Format                           : AC-3
Format/Info                      : Audio Coding 3
Codec ID                         : 2000
Duration                         : 1h 51mn
Bit rate mode                    : Constant
Bit rate                         : 448 Kbps
Channel(s)                       : 6 channels
Channel positions                : Front: L C R, Surround: L R, LFE
Sampling rate                    : 48.0 KHz
Stream size                      : 359 MiB (16%)
Alignment                        : Split accross interleaves

Audio #2
ID                               : 2
Format                           : AC-3
Format/Info                      : Audio Coding 3
Codec ID                         : 2000
Duration                         : 1h 51mn
Bit rate mode                    : Constant
Bit rate                         : 448 Kbps
Channel(s)                       : 6 channels
Channel positions                : Front: L C R, Surround: L R, LFE
Sampling rate                    : 48.0 KHz
Stream size                      : 359 MiB (16%)
Alignment                        : Split accross interleaves

Семпл: http://multi-up.com/800924

picpicpicpicpic
Для увеличения картинки щелкните мышкой по превью

Этот торрент недоступен для скачивания без регистрации, однако доступен по публичной magnet-ссылке (источники с публичных трекеров). Перед использованием ссылки прочтите, пожалуйста Пользовательское соглашение, а также как можно дольше оставайтесь на раздаче! Для того, чтобы скачать сам торрент-файл (который видит больше источников), а также для того, чтобы поблагодарить релизера, вам необходимо зарегистрироваться. Если регистрироваться лень - вы можете также попробовать скачать релиз по нашим партнерским ссылкам ниже.

[underverse.su].t22148.torrent
Трекер: Зарегистрирован   [ 10.12.2012 15:24 ]  

Статус: проверено (by Паукан at 20.12.2012 15:39)
Поблагодарили: пока никто не поблагодарил...
Тип торрента: публичный - доступные источники с открытых трекеров: 
Размер: 2,18 GB (занимает 1/2 DVDR, для записи нужно 1 болванка DVDR/RW)
 
 
Похожие темы
Форум Тема Автор Торрент Отв. Посл. сооб.
Зарубежное кино [DVDRip, Low-Res HDRip, и т.д.] Что-то не так с Кевином / We Need to Talk About Kevin (Линн Рэмси) [2011 г., Триллер, драма, DVDRip] theatre
0 | 0

0 | 506

4

06.02.2012 14:08

Зарубежное кино [DVDRip, Low-Res HDRip, и т.д.] Что-то не так с Кевином / We Need to Talk About Kevin (Линн Рэмси) [2011, Триллер, драма, HDRip] DVO (П.Гланц и И.Королева) Garnett
1 | 0

0 | 2546

3

07.01.2013 18:18

Зарубежное кино [DVDRip, Low-Res HDRip, и т.д.] Что-то не так с Кевином / We Need to Talk About Kevin (Линн Рэмси / Lynne Ramsay) [2011 г., триллер, драма, HDRip-AVC] DVO Garnett
0 | 0

0 | 331

0

08.01.2013 11:52


Яндекс.Метрика powered by Sphinx


В Н И М А Н И Е
Сайт не распространяет и не хранит электронные версии произведений, а лишь бесплатно и без коммерческой выгоды (не требуя взамен платы,
SMS и т.д.) предоставляет доступ к создаваемому пользователями каталогу ссылок на торрент-файлы, которые содержат только списки хеш-сумм.
Убедительная просьба с жалобами обращаться напрямую к пользователю, разместившему торрент файл.

Вверх