Loading...
Error

Двое в пути / Two for the Road (Стенли Донен) [1967 г., драма, мелодрама, комедия, DVDRip] DVO

Статистика раздачи
Размер:  1,46 GB   |    Зарегистрирован:  4 года   |    Скачан:  11 раз

Полного источника не было: 2 дня 6 часов

Сидов:  0  |  0 KB/s  ]   Личеров:  0  |  0 KB/s  ]

* - сиды/пиры с внешних источников

   
 
Автор Сообщение

Jimmy Пол:Муж

10-Дек-2012 06:44

Двое в пути / Two for the Road

Год выпуска: 1967
Жанр: драма, мелодрама, комедия
Страна: Великобритания
Режиссер: Стенли Донен
В ролях: Одри Хепберн, Альберт Финни, Элинор Брон, Уильям Дэниелс, Гэбриэлль Миддлтон, Клод Дофен, Надя Грей, Жорж Декриер, Жаклин Биссет, Джуди Корнвэлл
Сюжет фильма:
Переживающие кризис супружеской жизни, Марк и Джоанна Уоллес отправляются отдохнуть на французскую Ривьеру, место их знакомства. Будучи студентом, Марк, изучавший памятники европейской архитектуры, встретился там с весёлой компанией девушек-музыкантов.

Вначале Марк «запал» на Джекки, но затем переключился на Джоанну… Уже поженившись, они ещё не раз совершали поездки по Европе, и каждый раз их брак подвергался испытаниям на прочность. Нынешнее путешествие помогает им понять, что, сколько бы они ни ссорились и какие бы серьезные причины не говорили в пользу развода, они все ёще очень любят друг друга…

  • Мировая премьера: 27 апреля 1967


Качество видео: DVDRip

Продолжительность: 01:51:02
Формат: avi
Видео: XviD, 720x304, 1676 kbps
Аудио: русский, двухголосый закадровый [профессиональный], AC3 2.0, 192 kbps

Код:

General
Complete name                    : F:\Under\blablabla\_на время конкурса\Two.For.The.Road.1967.dvdrip_[1.46]_[teko].avi
Format                           : AVI
Format/Info                      : Audio Video Interleave
File size                        : 1.46 GiB
Duration                         : 1h 51mn
Overall bit rate                 : 1 878 Kbps
Writing application              : VirtualDubMod 1.5.10.3 | www.virtualdub-fr.org || (build 2550/release)
Writing library                  : VirtualDubMod build 2550/release

Video
ID                               : 0
Format                           : MPEG-4 Visual
Format profile                   : Streaming Video@L1
Format settings, BVOP            : Yes
Format settings, QPel            : No
Format settings, GMC             : No warppoints
Format settings, Matrix          : Custom
Codec ID                         : XVID
Codec ID/Hint                    : XviD
Duration                         : 1h 51mn
Bit rate                         : 1 677 Kbps
Width                            : 720 pixels
Height                           : 304 pixels
Display aspect ratio             : 2.35
Frame rate                       : 23.976 fps
Resolution                       : 24 bits
Colorimetry                      : 4:2:0
Scan type                        : Progressive
Bits/(Pixel*Frame)               : 0.320
Stream size                      : 1.30 GiB (89%)
Writing library                  : XviD 64

Audio
ID                               : 1
Format                           : AC-3
Format/Info                      : Audio Coding 3
Codec ID                         : 2000
Duration                         : 1h 51mn
Bit rate mode                    : Constant
Bit rate                         : 192 Kbps
Channel(s)                       : 2 channels
Channel positions                : L R
Sampling rate                    : 48.0 KHz
Stream size                      : 152 MiB (10%)
Alignment                        : Split accross interleaves
Interleave, duration             : 42 ms (1.00 video frame)
Interleave, preload duration     : 500 ms

Семпл: http://multi-up.com/633150

picpicpicpicpicpicpicpic
Для увеличения картинки щелкните мышкой по превью

Этот торрент недоступен для скачивания без регистрации, однако доступен по публичной magnet-ссылке (источники с публичных трекеров). Перед использованием ссылки прочтите, пожалуйста Пользовательское соглашение, а также как можно дольше оставайтесь на раздаче! Для того, чтобы скачать сам торрент-файл (который видит больше источников), а также для того, чтобы поблагодарить релизера, вам необходимо зарегистрироваться. Если регистрироваться лень - вы можете также попробовать скачать релиз по нашим партнерским ссылкам ниже.

[underverse.su].t22137.torrent
Трекер: Зарегистрирован   [ 10.12.2012 06:44 ]  

Статус: проверено (by Garnett at 10.12.2012 10:37)
Поблагодарили: 1 человек
Тип торрента: публичный - доступные источники с открытых трекеров: 
Размер: 1,46 GB (занимает 1/3 DVDR, для записи нужно 1 болванка DVDR/RW)
 
 

Яндекс.Метрика powered by Sphinx


В Н И М А Н И Е
Сайт не распространяет и не хранит электронные версии произведений, а лишь бесплатно и без коммерческой выгоды (не требуя взамен платы,
SMS и т.д.) предоставляет доступ к создаваемому пользователями каталогу ссылок на торрент-файлы, которые содержат только списки хеш-сумм.
Убедительная просьба с жалобами обращаться напрямую к пользователю, разместившему торрент файл.

Вверх