Loading...
Error

Дождись темноты / Wait Until Dark (Теренс Янг) [1967 г., ужасы, триллер, драма, криминал, DVDRip] Dub

Статистика раздачи
Размер:  1,46 GB   |    Зарегистрирован:  3 года 11 месяцев   |    Скачан:  9 раз

Полного источника не было: 10 месяцев

Сидов:  0  |  0 KB/s  ]   Личеров:  0  |  0 KB/s  ]

* - сиды/пиры с внешних источников

   
 
Автор Сообщение

Jimmy Пол:Муж

10-Дек-2012 06:35

Дождись темноты / Wait Until Dark

Год выпуска: 1967
Жанр: ужасы, триллер, драма, криминал
Страна: США
Режиссер: Теренс Янг
В ролях: Одри Хепберн, Алан Аркин, Ричард Кренна, Ефрем Цимбалист мл., Джек Уэстон, Саманта Джонс, Джули Эрро, Робби Бенсон, Жан Дель Вэл, Гэри Морган
Сюжет фильма:
В дом Сьюзи, недавно ослепшей в результате автокатастрофы, попадает тряпичная кукла, в которую наркоторговцы зашили крупную партию героина. Содержимое куклы очень хотят заполучить бандиты во главе с убийцей-психопатом Роутом. Слепая девушка беззащитна, лишь в темноте их шансы могут относительно уравняться, поэтому единственная надежда Сьюзи — дождаться темноты…

  • Мировая премьера: 26 октября 1967


Качество видео: DVDRip

Продолжительность: 01:47:43
Формат: avi
Видео: XviD, 688x384, 1541 kbps
Аудио #1: русский, дублированный, AC3 2.0, 192 kbps
Аудио #2: английский, оригинал, AC3 2.0, 192 kbps
Субтитры #1: внешние, SRT, русский
Субтитры #2: внешние, SRT, английский

Код:

General
Complete name                    : F:\Under\blablabla\_на время конкурса\Dozhdis.temnoty.1967.DVDRip\Dozhdis.temnoty.1967.DVDRip.avi
Format                           : AVI
Format/Info                      : Audio Video Interleave
File size                        : 1.46 GiB
Duration                         : 1h 47mn
Overall bit rate                 : 1 940 Kbps
Writing application              : VirtualDubModRus 1.5.10.2 (build 2542/release)
Writing library                  : VirtualDubMod build 2542/release

Video
ID                               : 0
Format                           : MPEG-4 Visual
Format profile                   : Streaming Video@L1
Format settings, BVOP            : Yes
Format settings, QPel            : No
Format settings, GMC             : No warppoints
Format settings, Matrix          : Custom
Codec ID                         : XVID
Codec ID/Hint                    : XviD
Duration                         : 1h 47mn
Bit rate                         : 1 542 Kbps
Width                            : 688 pixels
Height                           : 384 pixels
Display aspect ratio             : 16/9
Frame rate                       : 23.976 fps
Resolution                       : 24 bits
Colorimetry                      : 4:2:0
Scan type                        : Progressive
Bits/(Pixel*Frame)               : 0.243
Stream size                      : 1.16 GiB (79%)
Writing library                  : XviD 1.2.1 (UTC 2008-12-04)

Audio #1
ID                               : 1
Format                           : AC-3
Format/Info                      : Audio Coding 3
Codec ID                         : 2000
Duration                         : 1h 47mn
Bit rate mode                    : Constant
Bit rate                         : 192 Kbps
Channel(s)                       : 2 channels
Channel positions                : L R
Sampling rate                    : 48.0 KHz
Stream size                      : 148 MiB (10%)
Alignment                        : Split accross interleaves
Interleave, duration             : 42 ms (1.00 video frame)
Interleave, preload duration     : 500 ms

Audio #2
ID                               : 2
Format                           : AC-3
Format/Info                      : Audio Coding 3
Codec ID                         : 2000
Duration                         : 1h 47mn
Bit rate mode                    : Constant
Bit rate                         : 192 Kbps
Channel(s)                       : 2 channels
Channel positions                : L R
Sampling rate                    : 48.0 KHz
Stream size                      : 148 MiB (10%)
Alignment                        : Split accross interleaves
Interleave, duration             : 42 ms (1.00 video frame)
Interleave, preload duration     : 500 ms

pic pic pic pic pic
Для увеличения картинки щелкните мышкой по превью

Этот торрент недоступен для скачивания без регистрации, однако доступен по публичной magnet-ссылке (источники с публичных трекеров). Перед использованием ссылки прочтите, пожалуйста Пользовательское соглашение, а также как можно дольше оставайтесь на раздаче! Для того, чтобы скачать сам торрент-файл (который видит больше источников), а также для того, чтобы поблагодарить релизера, вам необходимо зарегистрироваться. Если регистрироваться лень - вы можете также попробовать скачать релиз по нашим партнерским ссылкам ниже.

[underverse.su].t22136.torrent
Трекер: Зарегистрирован   [ 10.12.2012 06:35 ]  

Статус: проверено (by Garnett at 10.12.2012 17:43)
Поблагодарили: пока никто не поблагодарил...
Тип торрента: публичный - доступные источники с открытых трекеров: 
Размер: 1,46 GB (занимает 0,33 DVDR, для записи нужно 1 болванка DVDR/RW)
 
 


Последний раз редактировалось: Jimmy (10.12.2012 14:25), всего редактировалось 1 раз

Garnett Пол:Муж

10-Дек-2012 10:35

Скриншоты не соответствуют размерам

Jimmy Пол:Муж

10-Дек-2012 14:25

Цитата:

Скриншоты не соответствуют размерам
поправил :P

Яндекс.Метрика powered by Sphinx


В Н И М А Н И Е
Сайт не распространяет и не хранит электронные версии произведений, а лишь бесплатно и без коммерческой выгоды (не требуя взамен платы,
SMS и т.д.) предоставляет доступ к создаваемому пользователями каталогу ссылок на торрент-файлы, которые содержат только списки хеш-сумм.
Убедительная просьба с жалобами обращаться напрямую к пользователю, разместившему торрент файл.

Вверх