Loading...
Error

Шарада / Charade (Стенли Донен) [1963 г., триллер, мелодрама, комедия, детектив, BDRip] MVO

Статистика раздачи
Размер:  1,47 GB   |    Зарегистрирован:  3 года 11 месяцев   |    Скачан:  14 раз

Полного источника не было: 1 месяц 19 дней

Сидов:  0  |  0 KB/s  ]   Личеров:  0  |  0 KB/s  ]

* - сиды/пиры с внешних источников

   
 
Автор Сообщение

Jimmy Пол:Муж

10-Дек-2012 06:27

Шарада / Charade

Год выпуска: 1963
Жанр: триллер, мелодрама, комедия, детектив
Страна: США
Режиссер: Стенли Донен
В ролях: Кэри Грант, Одри Хепберн, Уолтер Мэттау, Джеймс Коберн, Джордж Кеннеди, Доминик Мино, Нед Глэсс, Жак Марен, Поль Бонифас, Thomas Chelimsky
Сюжет фильма:
Очаровательная американка Регги Ламберт, подав на развод, уезжает на курорт, где знакомится с привлекательным незнакомцем Питером Джошуа. По возвращению в Париж ее ждет ужасная новость: ее муж убит при загадочных обстоятельствах, а все семейные сбережения были сняты с банковского счета и исчезли в неизвестном направлении…

И вот в жизни героини во второй раз (случайно ли?) появляется ее недавний знакомый под другим именем, а за ним — целая толпа «однополчан» ее покойного супруга, жаждущих заполучить кругленькую сумму, которую ее благоверный украл во время Второй Мировой Войны. Все ее преследователи уверены, что она-то уж точно знает о местонахождении злосчастного наследства.

По мере того, как охотники за «военным трофеем» начинают погибать один за другим, Регине становится все сложней разобраться, кому она может доверять.

  • Мировая премьера: 5 декабря 1963


Качество видео: BDRip

Продолжительность: 01:53:36
Формат: avi
Видео: XviD, 720x384, 1444 kbps
Аудио #1: русский, многоголосый закадровый [профессиональный], AC3 2.0, 192 kbps
Аудио #2: русский, многоголосый закадровый [профессиональный], AC3 1.0, 96 kbps
Аудио #3: английский, оригинал, AC3 1.0, 96 kbps
Субтитры #1: внешние, SRT, русский
Субтитры #2: внешние, SRT, английский

Код:

General
Complete name                    : F:\Under\blablabla\_на время конкурса\Charade\Charade.avi
Format                           : AVI
Format/Info                      : Audio Video Interleave
File size                        : 1.47 GiB
Duration                         : 1h 53mn
Overall bit rate                 : 1 848 Kbps
Writing application              : VirtualDubMod 1.5.10.2 (build 2540/release)
Writing library                  : VirtualDubMod build 2540/release

Video
ID                               : 0
Format                           : MPEG-4 Visual
Format profile                   : Streaming Video@L1
Format settings, BVOP            : Yes
Format settings, QPel            : No
Format settings, GMC             : No warppoints
Format settings, Matrix          : Custom
Muxing mode                      : Packed bitstream
Codec ID                         : XVID
Codec ID/Hint                    : XviD
Duration                         : 1h 53mn
Bit rate                         : 1 445 Kbps
Width                            : 720 pixels
Height                           : 384 pixels
Display aspect ratio             : 1.875
Frame rate                       : 23.976 fps
Resolution                       : 24 bits
Colorimetry                      : 4:2:0
Scan type                        : Progressive
Bits/(Pixel*Frame)               : 0.218
Stream size                      : 1.15 GiB (78%)
Writing library                  : XviD 1.2.1 (UTC 2008-12-04)

Audio #1
ID                               : 1
Format                           : AC-3
Format/Info                      : Audio Coding 3
Codec ID                         : 2000
Duration                         : 1h 53mn
Bit rate mode                    : Constant
Bit rate                         : 192 Kbps
Channel(s)                       : 2 channels
Channel positions                : L R
Sampling rate                    : 48.0 KHz
Stream size                      : 156 MiB (10%)
Alignment                        : Split accross interleaves
Interleave, duration             : 42 ms (1.00 video frame)
Interleave, preload duration     : 500 ms

Audio #2
ID                               : 2
Format                           : AC-3
Format/Info                      : Audio Coding 3
Codec ID                         : 2000
Duration                         : 1h 53mn
Bit rate mode                    : Constant
Bit rate                         : 96.0 Kbps
Channel(s)                       : 1 channel
Channel positions                : C
Sampling rate                    : 48.0 KHz
Stream size                      : 78.0 MiB (5%)
Alignment                        : Split accross interleaves
Interleave, duration             : 42 ms (1.00 video frame)
Interleave, preload duration     : 500 ms

Audio #3
ID                               : 3
Format                           : AC-3
Format/Info                      : Audio Coding 3
Codec ID                         : 2000
Duration                         : 1h 53mn
Bit rate mode                    : Constant
Bit rate                         : 96.0 Kbps
Channel(s)                       : 1 channel
Channel positions                : C
Sampling rate                    : 48.0 KHz
Stream size                      : 78.0 MiB (5%)
Alignment                        : Split accross interleaves
Interleave, duration             : 42 ms (1.00 video frame)
Interleave, preload duration     : 500 ms

picpicpicpicpic
Для увеличения картинки щелкните мышкой по превью

Этот торрент недоступен для скачивания без регистрации, однако доступен по публичной magnet-ссылке (источники с публичных трекеров). Перед использованием ссылки прочтите, пожалуйста Пользовательское соглашение, а также как можно дольше оставайтесь на раздаче! Для того, чтобы скачать сам торрент-файл (который видит больше источников), а также для того, чтобы поблагодарить релизера, вам необходимо зарегистрироваться. Если регистрироваться лень - вы можете также попробовать скачать релиз по нашим партнерским ссылкам ниже.

[underverse.su].t22135.torrent
Трекер: Зарегистрирован   [ 10.12.2012 06:27 ]  

Статус: проверено (by Garnett at 10.12.2012 10:34)
Поблагодарили: пока никто не поблагодарил...
Тип торрента: публичный - доступные источники с открытых трекеров: 
Размер: 1,47 GB (занимает 0,34 DVDR, для записи нужно 1 болванка DVDR/RW)
 
 

Яндекс.Метрика powered by Sphinx


В Н И М А Н И Е
Сайт не распространяет и не хранит электронные версии произведений, а лишь бесплатно и без коммерческой выгоды (не требуя взамен платы,
SMS и т.д.) предоставляет доступ к создаваемому пользователями каталогу ссылок на торрент-файлы, которые содержат только списки хеш-сумм.
Убедительная просьба с жалобами обращаться напрямую к пользователю, разместившему торрент файл.

Вверх