Loading...
Error

Любовь после полудня / Love in the Afternoon (Билли Уайлдер) [1957 г., драма, мелодрама, комедия, DVDRip] DVO

 
Автор Сообщение

Jimmy Пол:Муж

10-Дек-2012 06:19

Любовь после полудня / Love in the Afternoon


Год выпуска: 1957
Жанр: драма, мелодрама, комедия
Страна: США
Режиссер: Билли Уайлдер
В ролях: Гэри Купер, Одри Хепберн, Морис Шевалье, Джон МакГайвер, Ван Доудэ, Лизе Бурден, Ольга Валери, Марк Ориан, Вера Боккадоро, Франсуаз Брион
Сюжет фильма:
Клод Чавесс — частный детектив, специализирующийся на слежке за неверными женами и мужьями. Любимый объект его наблюдений, приносящий ему львиную долю доходов — американский миллионер и охотник за женщинами Флэннаган. На этот раз очередной обманутый муж, получив доказательства измены, решил застрелить обоих любовников во время их следующей встречи. Узнавшая об этом Ариана, дочь Клода, движимая состраданием, решает спасти Флэннагана и заодно познакомиться с ним. Это была самая большая ошибка в её жизни… Девушкам нельзя знакомиться с донжуанами…

  • Мировая премьера: 29 мая 1957


Качество видео: DVDRip

Продолжительность: 02:09:59
Формат: avi
Видео: XviD, 640x352, 1236 kbps
Аудио #1: русский, двухголосый закадровый [профессиональный], MP3 2.0, 128 kbps
Аудио #2: английский, оригинал, MP3 2.0, 128 kbps

Код:

General
Complete name                    : F:\Under\blablabla\_на время конкурса\Lyubov.Posle.Poludnya.avi
Format                           : AVI
Format/Info                      : Audio Video Interleave
File size                        : 1.37 GiB
Duration                         : 2h 9mn
Overall bit rate                 : 1 506 Kbps
Writing application              : VirtualDubMod 1.5.10.2 (build 2540/release)
Writing library                  : VirtualDubMod build 2540/release

Video
ID                               : 0
Format                           : MPEG-4 Visual
Format profile                   : Streaming Video@L1
Format settings, BVOP            : Yes
Format settings, QPel            : No
Format settings, GMC             : No warppoints
Format settings, Matrix          : Default (H.263)
Muxing mode                      : Packed bitstream
Codec ID                         : XVID
Codec ID/Hint                    : XviD
Duration                         : 2h 9mn
Bit rate                         : 1 236 Kbps
Width                            : 640 pixels
Height                           : 352 pixels
Display aspect ratio             : 16/9
Frame rate                       : 23.976 fps
Resolution                       : 24 bits
Colorimetry                      : 4:2:0
Scan type                        : Progressive
Bits/(Pixel*Frame)               : 0.229
Stream size                      : 1.12 GiB (82%)
Writing library                  : XviD 1.2.0SMP (UTC 2006-01-08)

Audio #1
ID                               : 1
Format                           : MPEG Audio
Format version                   : Version 1
Format profile                   : Layer 3
Codec ID                         : 55
Codec ID/Hint                    : MP3
Duration                         : 2h 9mn
Bit rate mode                    : Constant
Bit rate                         : 128 Kbps
Channel(s)                       : 2 channels
Sampling rate                    : 48.0 KHz
Resolution                       : 16 bits
Stream size                      : 119 MiB (8%)
Alignment                        : Aligned on interleaves
Interleave, duration             : 42 ms (1.00 video frame)
Interleave, preload duration     : 504 ms

Audio #2
ID                               : 2
Format                           : MPEG Audio
Format version                   : Version 1
Format profile                   : Layer 3
Codec ID                         : 55
Codec ID/Hint                    : MP3
Duration                         : 2h 9mn
Bit rate mode                    : Constant
Bit rate                         : 128 Kbps
Channel(s)                       : 2 channels
Sampling rate                    : 48.0 KHz
Resolution                       : 16 bits
Stream size                      : 119 MiB (8%)
Alignment                        : Aligned on interleaves
Interleave, duration             : 42 ms (1.00 video frame)
Interleave, preload duration     : 504 ms

picpicpicpicpic
Для увеличения картинки щелкните мышкой по превью
Download Для того, чтобы скачать этот торрент, необходимо залогиниться! Если у Вас нет логина на нашем трекере - зарегистрируйтесь, и он у Вас будет.

Как качать с торрент трекера  ·   Что такое torrent (торрент)  ·   Рейтинг и ограничения

 

Яндекс.Метрика powered by Sphinx


В Н И М А Н И Е
Сайт не распространяет и не хранит электронные версии произведений, а лишь бесплатно и без коммерческой выгоды (не требуя взамен платы,
SMS и т.д.) предоставляет доступ к создаваемому пользователями каталогу ссылок на торрент-файлы, которые содержат только списки хеш-сумм.
Убедительная просьба с жалобами обращаться напрямую к пользователю, разместившему торрент файл.

Вверх