Loading...
Error

Война и мир / War and Peace (Кинг Видор, Марио Сольдати) [1956 г., драма, мелодрама, военный, DVDRip] Dub

Статистика раздачи
Размер:  1,96 GB   |    Зарегистрирован:  3 года 11 месяцев   |    Скачан:  11 раз

Полного источника не было: 4 месяца 9 дней

Сидов:  0  |  0 KB/s  ]   Личеров:  0  |  0 KB/s  ]

* - сиды/пиры с внешних источников

   
 
Автор Сообщение

Jimmy Пол:Муж

10-Дек-2012 06:05

Война и мир / War and Peace

Год выпуска: 1956
Жанр: драма, мелодрама, военный
Страна: Италия
Режиссер: Кинг Видор, Марио Сольдати
В ролях: Одри Хепберн, Генри Фонда, Мел Феррер, Витторио Гассман, Херберт Лом, Оскар Хомолка, Анита Экберг, Хельмут Дантин, Туллио Карминати, Бэрри Джонс
Сюжет фильма:
Драма, номинированная на Оскар в 1957 году, рассказывает о международном конфликте, опасных приключениях, захватывающей интриге и трагической любви на фоне широкомасштабного вторжения Наполеона в Россию.

  • Мировая премьера: 21 августа 1956


Качество видео: DVDRip

Продолжительность: 03:27:16
Формат: avi
Видео: XviD, 576x320, 1315 kbps
Аудио: русский, дублированный, MP3 2.0, 128 kbps
Фильм дублирован на киностудии им. М.Горького

Код:

General
Complete name                    : F:\Under\blablabla\_на время конкурса\Voina_i_Mir_[*другой трекер*]\Voina.i.Mir.1.of.3.1956.(DVDRip.XviD.Rus).fenixclub.com.avi
Format                           : AVI
Format/Info                      : Audio Video Interleave
File size                        : 664 MiB
Duration                         : 1h 3mn
Overall bit rate                 : 1 453 Kbps
Writing library                  : VirtualDub build 28312/release

Video
ID                               : 0
Format                           : MPEG-4 Visual
Format profile                   : Simple@L3
Format settings, BVOP            : No
Format settings, QPel            : No
Format settings, GMC             : No warppoints
Format settings, Matrix          : Default (MPEG)
Codec ID                         : XVID
Codec ID/Hint                    : XviD
Duration                         : 1h 3mn
Bit rate                         : 1 316 Kbps
Width                            : 576 pixels
Height                           : 320 pixels
Display aspect ratio             : 16/9
Frame rate                       : 23.976 fps
Resolution                       : 24 bits
Colorimetry                      : 4:2:0
Scan type                        : Progressive
Bits/(Pixel*Frame)               : 0.298
Stream size                      : 601 MiB (91%)
Writing library                  : XviD 0.0.09 (UTC 2003-03-25)

Audio
ID                               : 1
Format                           : MPEG Audio
Format version                   : Version 1
Format profile                   : Layer 3
Codec ID                         : 55
Codec ID/Hint                    : MP3
Duration                         : 1h 3mn
Bit rate mode                    : Constant
Bit rate                         : 128 Kbps
Channel(s)                       : 2 channels
Sampling rate                    : 48.0 KHz
Resolution                       : 16 bits
Stream size                      : 58.5 MiB (9%)
Alignment                        : Aligned on interleaves
Interleave, duration             : 42 ms (1.00 video frame)
Interleave, preload duration     : 504 ms

picpicpicpicpic
Для увеличения картинки щелкните мышкой по превью

Этот торрент недоступен для скачивания без регистрации, однако доступен по публичной magnet-ссылке (источники с публичных трекеров). Перед использованием ссылки прочтите, пожалуйста Пользовательское соглашение, а также как можно дольше оставайтесь на раздаче! Для того, чтобы скачать сам торрент-файл (который видит больше источников), а также для того, чтобы поблагодарить релизера, вам необходимо зарегистрироваться. Если регистрироваться лень - вы можете также попробовать скачать релиз по нашим партнерским ссылкам ниже.

[underverse.su].t22133.torrent
Трекер: Зарегистрирован   [ 10.12.2012 06:05 ]  

Статус: проверено (by Garnett at 10.12.2012 10:31)
Поблагодарили: 1 человек
Тип торрента: публичный - доступные источники с открытых трекеров: 
Размер: 1,96 GB (занимает 0,45 DVDR, для записи нужно 1 болванка DVDR/RW)
 
 
Похожие темы
Форум Тема Автор Торрент Отв. Посл. сооб.
Наше кино [DVDRip, Low-Res HDRip, и т.д.] Война и мир (Сергей Бондарчук) [1965 г., драма, мелодрама, военный, история, DVDRip] 90ytr90
3 | 0

0 | 1201

15

22.09.2012 07:13

Исторические фильмы Война и мир Александра Первого. Наполеон против России. [фильм 1, 2] (Галина Огурная) [2012, Документальный, DVDRip] 90ytr90
0 | 0

0 | 2006

19

04.01.2014 13:56


Яндекс.Метрика powered by Sphinx


В Н И М А Н И Е
Сайт не распространяет и не хранит электронные версии произведений, а лишь бесплатно и без коммерческой выгоды (не требуя взамен платы,
SMS и т.д.) предоставляет доступ к создаваемому пользователями каталогу ссылок на торрент-файлы, которые содержат только списки хеш-сумм.
Убедительная просьба с жалобами обращаться напрямую к пользователю, разместившему торрент файл.

Вверх