Loading...
Error

Мы купили зоопарк / We Bought a Zoo (Кэмерон Кроу) [2011, драма, комедия, семейный, BDRip] Dub

Статистика раздачи
Размер:  1,46 GB   |    Зарегистрирован:  3 года 11 месяцев   |    Скачан:  8 раз

Полного источника не было: 8 дней

Сидов:  0  |  0 KB/s  ]   Личеров:  0  |  0 KB/s  ]

* - сиды/пиры с внешних источников

   
 
Автор Сообщение

Garnett Пол:Муж

10-Дек-2012 05:31

Мы купили зоопарк / We Bought a Zoo

Страна: США
Студии: Twentieth Century Fox Film Corporation, LBI Entertainment, Vinyl Films
Жанр: драма, комедия, семейный
Год выпуска: 2011
Продолжительность: 02:03:54
Перевод: Профессиональный (дублированный) лицензия
Cубтитры: нет
Режиссер: Кэмерон Кроу / Cameron Crowe
В ролях: Мэтт Дэймон (Benjamin Mee), Скарлетт Йоханссон (Kelly Foster), Томас Хейден Чёрч (Duncan Mee), Колин Форд (Dylan Mee), Мэгги Джонс (Rosie Mee), Энгус МакФадьен (Peter MacCready), Эль Фаннинг (Lily Miska), Патрик Фьюджит (Robin Jones), Джон Майкл Хиггинс (Walter Ferris), Карла Галло (Rhonda Blair).
Описание:
Лента рассказывает о том, как британское семейство Ми потратило все сбережения, чтобы спасти заброшенный сельский зверинец с двумя сотнями экзотических животных, которым грозила гибель...

Сэмпл: http://multi-up.com/801109
Качество видео: BDRip (Исх.: Blu-ray disc CEE 1080p)
Формат видео: AVI
Видео: XviD build 65, 704x384 (16:9), 23.976 fps, 1491 kbps avg, 0.23 bit/pixel
Аудио: 48 kHz, AC3 Dolby Digital, 2/0 (L,R) ch, 192 kbps avg (Rus Dub)
Общее
Полное имя : D:\We.Bought.a.Zoo.2011.DUB.XviD.AC3.BDRip._by.ZNG505_.avi
Формат : AVI
Формат/Информация : Audio Video Interleave
Размер файла : 1,46 Гбайт
Продолжительность : 2 ч. 3 м.
Общий поток : 1692 Кбит/сек
Программа кодирования : VirtualDubModRus 1.5.10.2 (build 2542/release)
Библиотека кодирования : VirtualDubMod build 2542/release
Видео
Идентификатор : 0
Формат : MPEG-4 Visual
Профиль формата : Advanced Simple@L5
Параметр BVOP формата : 1
Параметр QPel формата : Нет
Параметр GMC формата : Без точки перехода
Параметр матрицы формата : Выборочная
Идентификатор кодека : XVID
Идентификатор кодека/Подсказка : XviD
Продолжительность : 2 ч. 3 м.
Битрейт : 1491 Кбит/сек
Ширина : 704 пикселя
Высота : 384 пикселя
Соотношение сторон : 16:9
Частота кадров : 23,976 кадра/сек
Цветовое пространство : YUV
Субдискретизация насыщенности : 4:2:0
Битовая глубина : 8 бит
Тип развёртки : Прогрессивная
Метод сжатия : С потерями
Бит/(Пиксели*Кадры) : 0.230
Размер потока : 1,29 Гбайт (88%)
Библиотека кодирования : XviD 65
Аудио
Идентификатор : 1
Формат : AC-3
Формат/Информация : Audio Coding 3
Расширение режима : CM (complete main)
Идентификатор кодека : 2000
Продолжительность : 2 ч. 3 м.
Вид битрейта : Постоянный
Битрейт : 192 Кбит/сек
Каналы : 2 канала
Расположение каналов : Front: L R
Частота : 48,0 КГц
Битовая глубина : 16 бит
Метод сжатия : С потерями
Размер потока : 170 Мбайт (11%)
Выравнивание : Разделение по промежуткам
Продолжительность промежутка : 42 мс. (1,00 видеокадр)
Время предзагрузки промежутка : 500 мс.

picpicpic

Этот торрент недоступен для скачивания без регистрации, однако доступен по публичной magnet-ссылке (источники с публичных трекеров). Перед использованием ссылки прочтите, пожалуйста Пользовательское соглашение, а также как можно дольше оставайтесь на раздаче! Для того, чтобы скачать сам торрент-файл (который видит больше источников), а также для того, чтобы поблагодарить релизера, вам необходимо зарегистрироваться. Если регистрироваться лень - вы можете также попробовать скачать релиз по нашим партнерским ссылкам ниже.

[underverse.su].t22130.torrent
Трекер: Зарегистрирован   [ 10.12.2012 05:31 ]  

Статус: проверено (by garry at 10.12.2012 16:39)
Поблагодарили: пока никто не поблагодарил...
Тип торрента: публичный - доступные источники с открытых трекеров: 
Размер: 1,46 GB (занимает 0,33 DVDR, для записи нужно 1 болванка DVDR/RW)
 
 
Похожие темы
Форум Тема Автор Торрент Отв. Посл. сооб.
Зарубежное кино HQ Мы купили зоопарк / We Bought a Zoo (Кэмерон Кроу) [2011 г., драма, комедия, семейный, HDRip] (Rus, Ukr, Eng) HQ Underverse HQ Underverse
0 | 0

0 | 585

14

01.05.2012 13:01


Яндекс.Метрика powered by Sphinx


В Н И М А Н И Е
Сайт не распространяет и не хранит электронные версии произведений, а лишь бесплатно и без коммерческой выгоды (не требуя взамен платы,
SMS и т.д.) предоставляет доступ к создаваемому пользователями каталогу ссылок на торрент-файлы, которые содержат только списки хеш-сумм.
Убедительная просьба с жалобами обращаться напрямую к пользователю, разместившему торрент файл.

Вверх