Loading...
Error

Убойные каникулы / Tucker & Dale vs Evil (Эли Крэйг) [2010, ужасы, комедия, BDRip] Dub

Статистика раздачи
Размер:  1,45 GB   |    Зарегистрирован:  3 года 11 месяцев   |    Скачан:  19 раз

Полного источника не было: 1 год 7 месяцев

Сидов:  0  |  0 KB/s  ]   Личеров:  0  |  0 KB/s  ]

* - сиды/пиры с внешних источников

   
 
Автор Сообщение

Garnett Пол:Муж

10-Дек-2012 05:27

Убойные каникулы / Tucker & Dale vs Evil
«Куча жертв... ни одного маньяка»

Страна: Канада
Студия: Eden Rock Media, Looby Lou, Reliance Motion Picture Company
Жанр: ужасы, комедия
Год выпуска: 2010
Продолжительность: 01:28:43
Перевод: Профессиональный (дублированный) лицензия
Cубтитры: нет
Режиссёр: Эли Крэйг / Eli Craig
В ролях: Тайлер Лэбин, Алан Тьюдик, Кэти Боуден, Джесси Мосс, Филип Грэйнджер, Брэндон Джей МакЛарен, Кристи Лэйн, Челан Симмонс, Трэвис Нельсон, Алекс Арсено.
Описание:
Группа студентов колледжа отправляется за город, чтобы вовсю оторваться на выходных: попить пивка, поплавать в озере и подышать чистым лесным воздухом. Но уже в первый день они сталкиваются с неотесанными фермерами Такером и Дэйлом, также решившими как следует оттянуться на природе. Приняв этих диковатых, но, в сущности, симпатичных ребят за «злобных местных», горожане решают дать деревенщине жесткий отпор. Но с каждым их шагом становится только хуже…

Сэмпл: http://multi-up.com/780015
Качество видео: BDRip (Исх.: Tucker.And.Dale.USA-Transfer.BlueBirdHD)
Формат видео: AVI
Видео: XviD build 65, 720x304 (2.37:1), 23.976 fps, 1888 kbps avg, 0.36 bit/pixel
Аудио: 48 kHz, AC3 Dolby Digital, 3/2 (L,C,R,l,r) + LFE ch, 448 kbps avg (Rus Dub)
Общее
Полное имя : D:\Tucker&Dale.vs.Evil.2010.Dub.USA-Transfer.BDRip.XviD.AC3.avi
Формат : AVI
Формат/Информация : Audio Video Interleave
Размер файла : 1,45 Гбайт
Продолжительность : 1 ч. 28 м.
Общий поток : 2345 Кбит/сек
Программа кодирования : VirtualDubModRus 1.5.10.2 (build 2542/release)
Библиотека кодирования : VirtualDubMod build 2542/release
Видео
Идентификатор : 0
Формат : MPEG-4 Visual
Профиль формата : Advanced Simple@L5
Параметр BVOP формата : 2
Параметр QPel формата : Нет
Параметр GMC формата : Без точки перехода
Параметр матрицы формата : Выборочная
Идентификатор кодека : XVID
Идентификатор кодека/Подсказка : XviD
Продолжительность : 1 ч. 28 м.
Битрейт : 1888 Кбит/сек
Ширина : 720 пикселей
Высота : 304 пикселя
Соотношение сторон : 2,35:1
Частота кадров : 23,976 кадра/сек
Цветовое пространство : YUV
Субдискретизация насыщенности : 4:2:0
Битовая глубина : 8 бит
Тип развёртки : Прогрессивная
Метод сжатия : С потерями
Бит/(Пиксели*Кадры) : 0.360
Размер потока : 1,17 Гбайт (80%)
Библиотека кодирования : XviD 65
Аудио
Идентификатор : 1
Формат : AC-3
Формат/Информация : Audio Coding 3
Расширение режима : CM (complete main)
Идентификатор кодека : 2000
Продолжительность : 1 ч. 28 м.
Вид битрейта : Постоянный
Битрейт : 448 Кбит/сек
Каналы : 6 каналов
Расположение каналов : Front: L C R, Side: L R, LFE
Частота : 48,0 КГц
Битовая глубина : 16 бит
Метод сжатия : С потерями
Задержка видео : 8 с. 0 мс.
Размер потока : 284 Мбайт (19%)
Выравнивание : Разделение по промежуткам
Продолжительность промежутка : 42 мс. (1,00 видеокадр)
Время предзагрузки промежутка : 500 мс.

picpicpic

Этот торрент недоступен для скачивания без регистрации, однако доступен по публичной magnet-ссылке (источники с публичных трекеров). Перед использованием ссылки прочтите, пожалуйста Пользовательское соглашение, а также как можно дольше оставайтесь на раздаче! Для того, чтобы скачать сам торрент-файл (который видит больше источников), а также для того, чтобы поблагодарить релизера, вам необходимо зарегистрироваться. Если регистрироваться лень - вы можете также попробовать скачать релиз по нашим партнерским ссылкам ниже.

[underverse.su].t22129.torrent
Трекер: Зарегистрирован   [ 10.12.2012 05:27 ]  

Статус: проверено (by Паукан at 10.12.2012 21:04)
Поблагодарили: 1 человек
Тип торрента: публичный - доступные источники с открытых трекеров: 
Размер: 1,45 GB (занимает 1/3 DVDR, для записи нужно 1 болванка DVDR/RW)
 
 
Похожие темы
Форум Тема Автор Торрент Отв. Посл. сооб.
Зарубежное кино [DVDRip, Low-Res HDRip, и т.д.] Убойные каникулы / Tucker & Dale vs Evil (Эли Крэйг) [2010 г., Ужасы, Комедия, BDRip-AVC] Dub (RUS) + 2-AVO (RUS) + VO (RUS) + MVO (UKR) + Original (ENG) + Subs (RUS, ENG) Ведьмочка
6 | 0

0 | 1401

11

06.10.2014 03:51

Зарубежное кино [DVD / HDDVD / BD / Remux] Убойные каникулы / Tucker & Dale vs Evil (Эли Крэйг ) [2010 г., комедия, ужасы, DVD-9] SKRiptus
2 | 0

2 | 1449

3

28.12.2012 20:50

Зарубежное кино [HDDVDRip / BDRip / WEB-DL / HDTV 1080/720р] Убойные каникулы / Tucker & Dale vs Evil (Эли Крэйг) [2010 г., Ужасы, Комедия, BDRip 1080p] Dub (RUS, Лицензия) + Original (ENG) + Subs (RUS) Ведьмочка
6 | 0

0 | 1276

4

06.10.2014 03:26

Зарубежное кино [HDDVDRip / BDRip / WEB-DL / HDTV 1080/720р] Убойные каникулы / Tucker & Dale vs Evil (Эли Крэйг) [2010 г., Ужасы, Комедия, BDRip 720p] Dub (RUS, Лицензия) Ведьмочка
26 | 2

0 | 1389

16

06.10.2014 03:31


Яндекс.Метрика powered by Sphinx


В Н И М А Н И Е
Сайт не распространяет и не хранит электронные версии произведений, а лишь бесплатно и без коммерческой выгоды (не требуя взамен платы,
SMS и т.д.) предоставляет доступ к создаваемому пользователями каталогу ссылок на торрент-файлы, которые содержат только списки хеш-сумм.
Убедительная просьба с жалобами обращаться напрямую к пользователю, разместившему торрент файл.

Вверх