Loading...
Error

Последняя искра жизни / La chispa de la vida (Алекс де ла Иглесиа) [2011, драма, DVDRip] MVO + Original Spa

Статистика раздачи
Размер:  1,46 GB   |    Зарегистрирован:  5 лет 5 месяцев   |    Скачан:  4 раза

Полного источника не было: 2 года 7 месяцев

Сидов:  0  |  0 KB/s  ]   Личеров:  0  |  0 KB/s  ]

* - сиды/пиры с внешних источников

   
 
Автор Сообщение

Garnett Пол:Муж

10-Дек-2012 05:23

Последняя искра жизни / La chispa de la vida

«Лучшие новости - плохие новости»
Страна: Испания, Франция, США
Жанр: драма
Год выпуска: 2011
Продолжительность: 01:34:33
Перевод: Профессиональный (многоголосый закадровый)
Cубтитры: нет
Оригинальная аудиодорожка: испанский
Режиссер: Алекс де ла Иглесиа / Бlex de la Iglesia
В ролях: Сальма Хайек, Сантьяго Сегура, Начо Вигалондо, Гильермо Толедо, Каролина Банг, Антонио де ла Торре, Хавьер Боте, Бланка Портильо, Нереа Камачо, Фернандо Техеро
Описание: Безработный пиарщик Роберто пытается устроиться на работу, но его кандидатуру отвергают все агентства. Никого не интересует тот факт, что именно он придумал слоган Кока-колы «Она настоящая». Ситуация резко меняется, когда Роберто попадает в аварию и висит на волоске между жизнью и смертью. Роберто подключает свой опыт в области пиара и превращает аварию в медиа-событие. Он тут же нанимает агента и поручает ему продать эксклюзивные репортажи с места аварии на телеканалы, дабы обеспечить свою семью до конца жизни. Неужели Роберто выживет? Или поплатится жизнью ради денег?

Качество видео: DVDRip
Формат видео: AVI
Видео: 704x304 (2.32:1), 25 fps, XviD build 50 ~1753 kbps avg, 0.33 bit/pixel
Аудио 1: Russian (48 kHz, AC3 Dolby Digital, 2/0 (L,R) ch, ~192 kbps)
Аудио 2: Spanish (48 kHz, AC3 Dolby Digital, 2/0 (L,R) ch, ~256 kbps)
Общее
Полное имя : F:Posledniaia.iskra.jizni.2011.1400.DVDRip.avi
Формат : AVI
Формат/Информация : Audio Video Interleave
Размер файла : 1,46 Гбайт
Продолжительность : 1 ч. 34 м.
Общий поток : 2216 Кбит/сек
Название фильма : Posledniaia.iskra.jizni.2011.P.XviD.DVDRip
Программа кодирования : VirtualDubMod 1.5.10.2 (build 2540/release)
Правообладатель : R.G. KiKTeam
Видео
Идентификатор : 0
Формат : MPEG-4 Visual
Профиль формата : Advanced Simple@L5
Параметр BVOP формата : 1
Параметр QPel формата : Нет
Параметр GMC формата : Без точки перехода
Параметр матрицы формата : Default (MPEG)
Идентификатор кодека : XVID
Идентификатор кодека/Подсказка : XviD
Продолжительность : 1 ч. 34 м.
Битрейт : 1754 Кбит/сек
Ширина : 704 пикс.
Высота : 304 пикс.
Соотношение сторон : 2,35:1
Частота кадров : 25,000 кадр/сек
Цветовое пространство : YUV
Подвыборка цветности : 4:2:0
Битовая глубина : 8 бит
Тип развёртки : Прогрессивная
Метод сжатия : С потерями
Бит/(Пиксели*Кадры) : 0.328
Размер потока : 1,16 Гбайт (79%)
Библиотека кодирования : XviD 1.2.1 (UTC 2008-12-04)
Аудио #1
Идентификатор : 1
Формат : AC-3
Формат/Информация : Audio Coding 3
Расширение режима : CM (complete main)
Идентификатор кодека : 2000
Продолжительность : 1 ч. 34 м.
Вид битрейта : Постоянный
Битрейт : 192 Кбит/сек
Каналы : 2 канала
Расположение каналов : Front: L R
Частота : 48,0 КГц
Битовая глубина : 16 бит
Метод сжатия : С потерями
Задержка видео : 8 мс.
Размер потока : 130 Мбайт (9%)
Выравнивание : Разделение по промежуткам
Продолжительность промежутка : 40 мс. (1,00 видеокадр)
Время предзагрузки промежутка : 500 ms
Аудио #2
Идентификатор : 2
Формат : AC-3
Формат/Информация : Audio Coding 3
Расширение режима : CM (complete main)
Идентификатор кодека : 2000
Продолжительность : 1 ч. 34 м.
Вид битрейта : Постоянный
Битрейт : 256 Кбит/сек
Каналы : 2 канала
Расположение каналов : Front: L R
Частота : 48,0 КГц
Битовая глубина : 16 бит
Метод сжатия : С потерями
Размер потока : 173 Мбайт (12%)
Выравнивание : Разделение по промежуткам
Продолжительность промежутка : 40 мс. (1,00 видеокадр)
Время предзагрузки промежутка : 500 ms
picpicpic

Этот торрент недоступен для скачивания без регистрации, однако доступен по публичной magnet-ссылке (источники с публичных трекеров). Перед использованием ссылки прочтите, пожалуйста Пользовательское соглашение, а также как можно дольше оставайтесь на раздаче! Для того, чтобы скачать сам торрент-файл (который видит больше источников), а также для того, чтобы поблагодарить релизера, вам необходимо зарегистрироваться. Если регистрироваться лень - вы можете также попробовать скачать релиз по нашим партнерским ссылкам ниже. Кроме того, зарегистрированным пользователям не показывается всплывающая реклама при скачивании.

[underverse.su].t22128.torrent
Трекер: Зарегистрирован   [ 10.12.2012 05:23 ]  

Статус: проверено (by garry at 10.12.2012 15:34)
Поблагодарили: пока никто не поблагодарил...
Тип торрента: публичный - доступные источники с открытых трекеров: 
Размер: 1,46 GB (занимает 0,33 DVDR, для записи нужно 1 болванка DVDR/RW)
 
 
Похожие темы
Форум Тема Автор Торрент Отв. Посл. сооб.
Зарубежное кино [DVDRip, Low-Res HDRip, и т.д.] Последняя любовь на Земле / Perfect Sense (Дэвид МакКензи) [2011 г., фантастика, драма, мелодрама, HDRip] MVO RG NewCinema
6 | 0

0 | 1539

43

13.11.2012 18:15

Зарубежное кино [DVDRip, Low-Res HDRip, и т.д.] Последняя любовь на Земле / Perfect Sense (Дэвид МакКензи) [2011 г., фантастика, драма, мелодрама , BDRip-AVC] MVO Чертёнок
1 | 0

0 | 1651

28

02.02.2013 21:41

Зарубежное кино [DVDRip, Low-Res HDRip, и т.д.] Последняя любовь мистера Моргана / Mr. Morgan's Last Love (Сандра Неттельбек) [2013 г., драма, комедия, HDRip] DVO (CasStudio) 90ytr90
1 | 0

1 | 2294

37

22.12.2013 02:15

Зарубежное кино [DVDRip, Low-Res HDRip, и т.д.] Последняя остановка / Don't Blink / Last Stop (Трэвис Оутс) [2014 г., ужасы, фантастика, WEB-DLRip] DVO [DeadSno & den904] Паукан
0 | 0

0 | 961

23

21.01.2015 10:41

Зарубежное кино [DVDRip, Low-Res HDRip, и т.д.] Последняя битва / Ardennes Fury (Джозеф Дж. Лосон) [2014 г., военный, драма, боевик, HDRip] VO [Павел Морозов aka PashaUp] Паукан
1 | 0

0 | 714

18

07.04.2015 13:26

Зарубежное кино [DVDRip, Low-Res HDRip, и т.д.] Последняя минута / Akkilahto (Тийна Люми / Tiina Lymi) [2016 г., драма, BDRip] AVO (Карповский) 90ytr90
0 | 0

0 | 419

1

06.09.2016 14:47

Зарубежное кино [DVDRip, Low-Res HDRip, и т.д.] Последняя девушка / Final Girl (Тайлер Шилдс) [2015 г., триллер, боевик, драма, HDRip] VO + Original makkol
10 | 0

0 | 587

29

11.07.2015 11:33

Зарубежное кино [DVDRip, Low-Res HDRip, и т.д.] Последняя девушка / Final Girl (Тайлер Шилдс) [2015 г., боевик, триллер, драма, BDRip] DVO makkol
2 | 0

0 | 800

45

23.09.2015 23:01

Зарубежное кино [DVDRip, Low-Res HDRip, и т.д.] Последняя смена / Last Shift (Энтони ДиБлази) [2014 г., ужасы, триллер, HDRip] VO makkol
7 | 2

0 | 475

25

30.09.2015 14:18

Зарубежное кино [DVDRip, Low-Res HDRip, и т.д.] Последняя девушка / Last Girl Standing (Бенджамин Р. Муди) [2015 г., ужасы, драма, WEB-DLRip] DVO + Original makkol
2 | 1

1 | 1437

14

11.04.2016 22:17

31-Янв-2018 14:12

Топик был перенесен из форума Зарубежное кино [DVDRip, Low-Res HDRip, и т.д.] в форум Архив (художественные фильмы)


[cron robot]
 

Яндекс.Метрика powered by Sphinx


В Н И М А Н И Е
Сайт не распространяет и не хранит электронные версии произведений, а лишь бесплатно и без коммерческой выгоды (не требуя взамен платы,
SMS и т.д.) предоставляет доступ к создаваемому пользователями каталогу ссылок на торрент-файлы, которые содержат только списки хеш-сумм.
Убедительная просьба с жалобами обращаться напрямую к пользователю, разместившему торрент файл.

Вверх